Тор 2: Царство темряви / Thor: The Dark World (2013) Remux 1080p Ukr/Eng | Sub Ukr/Eng

Нові коментарі

Нова тема   Відповісти
Автор Повідомлення
Argentum 
Свій


З нами з: 25.09.11
Востаннє: 22.08.17
Повідомлень: 69

2017-04-09 12:57  
Тор 2: Царство темряви / Thor: The Dark World (2013) Remux 1080p Ukr/Eng | Sub Ukr/Eng

Тор 2: Царство темряви / Thor: The Dark World (2013) Remux 1080p Ukr/Eng | Sub Ukr/Eng
Інші постери




Жанр: бойовик, пригодницький, фентезі
Країна: США



Кінокомпанія: Marvel Studios, Marvel Entertainment
Режисер: Алан Тейлор
Актори: Кріс Гемсворт, Наталі Портман, Том Гіддлстон, Ентоні Гопкінс, Стеллан Скашгорд, Ідріс Ельба

Сюжет:
Події розгортаються через два роки після першого фільму. У цій частині Тору доведеться стати на захист Землі та всіх Дев'яти Світів від таємничого ворога з часів, що передували виникненню всесвіту. Після подій «Месників» він б'ється за відновлення порядку в космосі, але прадавня раса на чолі з безжалісним Малекітом, жадаючим помсти, повертається, щоб занурити всесвіт назад в пітьму. Зіткнувшись з ворогом, протистояти якому не здатний навіть сам Одін та весь Асгард, Тор вирушає в свою найбільш грандіозну і ризиковану подорож, яка допоможе йому знов зустрітися з Джейн Фостер, але змусить пожертвувати усім заради порятунку людства.


Тривалість: 01:52:03
Якість: Remux
Відео:
кодек:
розмір кадру: 1920 х 1080
бітрейт: ~25049 кб/с

Аудіо # 1:
мова: українська
переклад: професійний дубльований
кодек: 5.1
бітрейт: 1536 кб/с

Аудіо # 2:
мова: українська
переклад: професійний дубльований
кодек: 5.1
бітрейт: 448 кб/с

Аудіо # 3:
мова: англійська
переклад: оригінал
кодек: 5.1
бітрейт: 1536 кб/с

Аудіо # 4:
мова: англійська
переклад: оригінал
кодек: 5.1
бітрейт: 640 кб/с

Субтитри 1-2:
мова: українська (форсовані, повні)
тип: програмні (м'які)
формат: *.srt

Субтитри 3-4:
мова: англійська (форсовані, повні)
тип: програмні (м'які)
формат: *.srt
Info
General
Unique ID : 299932729795826377303514880930910331401 (0xE1A4F14BB6DD65E35C198C88B7846209)
Complete name : /home/jack/Videos/My/Thor/Thor. The Dark World (2013) [Ukr,Eng] Remux 1080p [Hurtom].
Format :
Format version : Version 4 / Version 2
File size : 22.7 GiB
Duration : 1h 54mn
Overall bit rate mode : Variable
Overall bit rate : 28.4 Mbps
Movie name : Release for HURTOM.COM
Encoded date : UTC 2017-04-08 18:14:25
Writing application : mkvmerge v10.0.0 ('To Drown In You') 64bit
Writing library : libebml v1.3.4 + libmatroska v1.4.5
Attachments : 0_92ed2_4c8e7c50_XXL.jpg

Video
ID : 1
Format : AVC
Format/Info : Advanced Video Codec
Format profile : [email protected]
Format settings, CABAC : Yes
Format settings, ReFrames : 4 frames
Codec ID : V_MPEG4/ISO/AVC
Duration : 1h 52mn
Bit rate mode : Variable
Bit rate : 24.8 Mbps
Maximum bit rate : 32.5 Mbps
Width : 1 920 pixels
Height : 1 080 pixels
Display aspect ratio : 16:9
Frame rate mode : Constant
Frame rate : 23.976 (24000/1001) fps
Color space : YUV
Chroma subsampling : 4:2:0
Bit depth : 8 bits
Scan type : Progressive
Bits/(Pixel*Frame) : 0.499
Stream size : 19.4 GiB (86%)
Title : AVC @ ~25049 kbps
Default : Yes
Forced : No

Audio #1
ID : 2
Format :
Format/Info : Digital Theater Systems
Mode : 16
Format settings, Endianness : Big
Codec ID : A_DTS
Duration : 1h 52mn
Bit rate mode : Constant
Bit rate : 1 509 Kbps
Channel(s) : 6 channels
Channel positions : Front: L C R, Side: L R, LFE
Sampling rate : 48.0 KHz
Frame rate : 93.750 fps (512 spf)
Bit depth : 24 bits
Compression mode : Lossy
Stream size : 1.19 GiB (5%)
Title : 5.1 @ 1536 kbps
Language : Ukrainian
Default : Yes
Forced : No

Audio #2
ID : 3
Format : AC-3
Format/Info : Audio Coding 3
Mode extension : CM (complete main)
Format settings, Endianness : Big
Codec ID : A_AC3
Duration : 1h 52mn
Bit rate mode : Constant
Bit rate : 448 Kbps
Channel(s) : 6 channels
Channel positions : Front: L C R, Side: L R, LFE
Sampling rate : 48.0 KHz
Frame rate : 31.250 fps (1536 spf)
Compression mode : Lossy
Stream size : 360 MiB (2%)
Title : 5.1 @ 448 kbps
Language : Ukrainian
Default : No
Forced : No

Audio #3
ID : 4
Format :
Format/Info : Digital Theater Systems
Mode : 16
Format settings, Endianness : Big
Codec ID : A_DTS
Duration : 1h 52mn
Bit rate mode : Constant
Bit rate : 1 509 Kbps
Channel(s) : 6 channels
Channel positions : Front: L C R, Side: L R, LFE
Sampling rate : 48.0 KHz
Frame rate : 93.750 fps (512 spf)
Bit depth : 24 bits
Compression mode : Lossy
Delay relative to video : 33ms
Stream size : 1.18 GiB (5%)
Title : 5.1 @ 1536 kbps
Language : English
Default : No
Forced : No

Audio #4
ID : 5
Format : AC-3
Format/Info : Audio Coding 3
Mode extension : CM (complete main)
Format settings, Endianness : Big
Codec ID : A_AC3
Duration : 1h 52mn
Bit rate mode : Constant
Bit rate : 640 Kbps
Channel(s) : 6 channels
Channel positions : Front: L C R, Side: L R, LFE
Sampling rate : 48.0 KHz
Frame rate : 31.250 fps (1536 spf)
Compression mode : Lossy
Stream size : 513 MiB (2%)
Title : 5.1 @ 640 kbps
Language : English
Default : No
Forced : No

Text #1
ID : 6
Format : UTF-8
Codec ID : S_TEXT/UTF8
Codec ID/Info : UTF-8 Plain Text
Duration : 1h 13mn
Bit rate : 3 bps
Count of elements : 31
Stream size : 1.65 KiB (0%)
Title : Forced
Language : Ukrainian
Default : Yes
Forced : No

Text #2
ID : 7
Format : UTF-8
Codec ID : S_TEXT/UTF8
Codec ID/Info : UTF-8 Plain Text
Duration : 1h 53mn
Bit rate : 65 bps
Count of elements : 1114
Stream size : 54.1 KiB (0%)
Title : Full
Language : Ukrainian
Default : No
Forced : No

Text #3
ID : 8
Format : UTF-8
Codec ID : S_TEXT/UTF8
Codec ID/Info : UTF-8 Plain Text
Duration : 1h 15mn
Bit rate : 1 bps
Count of elements : 31
Stream size : 1 018 Bytes (0%)
Title : Forced
Language : English
Default : No
Forced : No

Text #4
ID : 9
Format : UTF-8
Codec ID : S_TEXT/UTF8
Codec ID/Info : UTF-8 Plain Text
Duration : 1h 45mn
Bit rate : 41 bps
Count of elements : 1138
Stream size : 32.4 KiB (0%)
Title : Full
Language : English
Default : No
Forced : No
Скріншоти




Джерело: &
Особиста оцінка: 8 - мені сподобалося


Золотий реліз (завантажене не впливає на рейтинг)
 Трекер:    Зареєстрований   

Завантажити / скачати фільм українською



відео для новачків



 Зареєстрований:   2017-08-20 19:32
 Розмір:   22.65 GB 
 Оцінка фільму:   8.4/10 (Голосів: 12)
   
dima77777 
Поважний учасник


З нами з: 29.11.12
Востаннє: 22.08.17
Повідомлень: 223

2017-04-09 22:27  
о класс дякую вам велике за ТОРА обожнюю фільми від MARVEL
geroyasfalta 
Свій


З нами з: 20.06.11
Востаннє: 21.08.17
Повідомлень: 51

2017-04-10 18:51  
Дякую за 1509! Шкода що тільки ядро в роздачі.
kryk-v.ya. 
Свій


З нами з: 14.02.14
Востаннє: 22.08.17
Повідомлень: 126

2017-04-11 15:07  
бімба...
Argentum 
Свій


З нами з: 25.09.11
Востаннє: 22.08.17
Повідомлень: 69

2017-08-20 19:34  
Додав до torrent файла посилання на web-seed. Прохання перехешувати роздачу!

Life LV 
Новенький


З нами з: 21.08.17
Востаннє: 21.08.17
Повідомлень: 1

2017-08-21 11:34  
Дякую за роздачу, качаю, думаю не розчаруюсь ))
Ваш часовий пояс: GMT + 2 Години

Нова тема   Відповісти