Аліса в країні чудес (серії: 11, 18, 28, 31, 32, 36, 37, 46, 52) / Alice in Wonderland / Fushigi no kuni no Arisu 1983 IPTVRemux

Нові коментарі

Нова тема   Відповісти
Автор Повідомлення
MasterYura 
Відео Гуртом - фільмокрай
Відео Гуртом - фільмокрай


З нами з: 21.11.09
Востаннє: 15.10.17
Повідомлень: 984

2017-04-08 15:55  
Аліса в країні чудес (серії: 11, 18, 28, 31, 32, 36, 37, 46, 52)
Fushigi no kuni no Arisu / Alice in Wonderland 1983 IPTVRemux

Аліса в країні чудес (серії: 11, 18, 28, 31, 32, 36, 37, 46, 52) / Alice in Wonderland / Fushigi no kuni no Arisu 1983 IPTVRemux


Жанр: Аніме, пригоди, казка
Країна: Японія



Кінокомпанія: An ORF/ZDF and Apopllo film co-production with Nippon animation
Режисер: Сугияма Таку (Shigeo Koshi)
Сюжет:
Дівчинка на ім'я Аліса вирішує слідувати за білим кроликом і потрапляє в країну чудес. Там вона зустрічає різних неймовірних істот, в тому числі чеширского кота і злу королеву чирв.

Інфо: японський аніме-серіал, випущений студією Nippon Animation за мотивами казки Аліса в країні чудес. Транслювався по телеканалу TV Osaka з 26 березня 1983 року по 10 жовтня 1984 року. Всього випущено 52 серії аніме. Примітно, що 26 інших серій були створені на замовлення західних компаній. Серіал транслювався на території Франції, Іспанії, Італії, Німеччини, Нідерландів, Португалії та Філіппін.


Додатковий опис: Перші 26 серій є екранізацією оповідання "Аліса в країні Чудес", а останні 26 серій - за сюжетом оповідання "Аліса в Задзеркаллі".

Тривалість: 1 серія: 24:00 (цілком серій: 9)
Якість:
Відео:
кодек: MPEG-2 SVCD
розмір кадру: 704 х 576
бітрейт: 1 771 кб/с

Аудіо:
мова: українська
переклад: багатоголосий закадровий
кодек: 2.0
бітрейт: 128 кб/с

Джерело озвучення:
Скріншоти




Info

General
Complete name : ... 11 Looking for the Eggs.mp4
Format : MPEG-4
Format profile : Base Media / Version 2
Codec ID : mp42 (ndhd/avc1/mp42/isom)
File size : 328 MiB
Duration : 24 min 24 s
Overall bit rate mode : Variable
Overall bit rate : 1 878 kb/s
Encoded date : UTC 2016-05-03 09:54:11
Tagged date : UTC 2016-05-03 10:12:03

Video
ID : 1
Format : AVC
Format/Info : Advanced Video Codec
Format profile : [email protected]
Format settings, CABAC : Yes
Format settings, ReFrames : 2 frames
Codec ID : avc1
Codec ID/Info : Advanced Video Coding
Duration : 24 min 24 s
Bit rate : 1 746 kb/s
Maximum bit rate : 3 986 kb/s
Width : 704 pixels
Height : 576 pixels
Display aspect ratio : 4:3
Frame rate mode : Constant
Frame rate : 25.000 FPS
Standard : PAL
Color space : YUV
Chroma subsampling : 4:2:0
Bit depth : 8 bits
Scan type : Progressive
Bits/(Pixel*Frame) : 0.172
Stream size : 305 MiB (93%)
Language : English
Encoded date : UTC 2016-05-03 09:54:11
Tagged date : UTC 2016-05-03 10:12:03

Audio
ID : 2
Format :
Format/Info : Advanced Audio Codec
Format profile : LC
Codec ID : 40
Duration : 24 min 24 s
Bit rate mode : Variable
Bit rate : 128 kb/s
Maximum bit rate : 142 kb/s
Channel(s) : 2 channels
Channel positions : Front: L R
Sampling rate : 48.0 kHz
Frame rate : 46.875 FPS (1024 spf)
Compression mode : Lossy
Stream size : 22.4 MiB (7%)
Language : English
Encoded date : UTC 2016-05-03 09:54:11
Tagged date : UTC 2016-05-03 10:12:03

Menu
00:00:00.000 : Start
Подяка Radistka за надані більшість серій

Джерело: ex.ua &
Особиста оцінка: 0 - не дивився


Срібний реліз (на рейтинг впливає 50% завантаженого)
 Трекер:    Зареєстрований   

Завантажити / скачати мультфільм українською



відео для новачків



 Зареєстрований:   2017-05-29 12:58
 Розмір:   3.7 GB 
 Оцінка мультсеріалу:   10/10 (Голосів: 2)
   
MasterYura 
Відео Гуртом - фільмокрай
Відео Гуртом - фільмокрай


З нами з: 21.11.09
Востаннє: 15.10.17
Повідомлень: 984

2017-04-08 15:57  
модератори, перенессіть в мультсеріали (я перепутав)
Electroz 
Відео Гуртом - підтримка та поширення
Відео Гуртом - підтримка та поширення


З нами з: 18.09.14
Востаннє: 17.10.17
Повідомлень: 1689

2017-04-08 18:17  
MasterYura
Ви ж ніби давно вже зареєстровані, а досі не знаєте, як це зробити.
Внизу сторінки натисніть - "Перенести тему".

bot 
робот


З нами з: 30.09.07
Востаннє: 26.05.05
Повідомлень: 17694

2017-04-08 18:33  
Тему перенесено з Мультфільми до форуму Мультсеріали


MasterYura

MasterYura 
Відео Гуртом - фільмокрай
Відео Гуртом - фільмокрай


З нами з: 21.11.09
Востаннє: 15.10.17
Повідомлень: 984

2017-04-08 18:34  
Electroz написано:

MasterYura
Ви ж ніби давно вже зареєстровані, а досі не знаєте, як це зробити.
Внизу сторінки натисніть - "Перенести тему".

жодного разу не переносив, тому і не згадав...
шукав в Редагувати - але там не меє...

Дякую за допомогу)

hetzendorf 
Відео Гуртом - підтримка та поширення
Відео Гуртом - підтримка та поширення


З нами з: 23.07.15
Востаннє: 17.10.17
Повідомлень: 486

2017-04-09 02:52  
Цікаво буде глянути, але чому серії із середини та ще й урізнобій?

Скріншоти 1 і 2 — це Аліска вже у Задзеркаллі.
MasterYura написано:
і злу королеву черв'яків

Які ще хробаки? Це Королева чирв (Herz-Dame) з колоди карт!

MasterYura 
Відео Гуртом - фільмокрай
Відео Гуртом - фільмокрай


З нами з: 21.11.09
Востаннє: 15.10.17
Повідомлень: 984

2017-04-09 11:43  
hetzendorf написано:
чому серії із середини та ще й урізнобій?

це те що було врятовано із ex.ua. Маємо те, що маємо
hetzendorf написано:
Скріншоти 1 і 2 — це Аліска вже у Задзеркаллі.

Оригінальна назва на "здається японській "Fushigi no kuni no Arisu" - ...країні чудес...
hetzendorf написано:
Які ще хробаки? Це Королева чирв (Herz-Dame) з колоди карт!

)))справді - виправлено

дякую за комент

FreusLess 
Новенький


З нами з: 30.01.17
Востаннє: 14.10.17
Повідомлень: 5

2017-05-20 21:30  
Роздайте, будь ласка, цю цікавинку
MasterYura 
Відео Гуртом - фільмокрай
Відео Гуртом - фільмокрай


З нами з: 21.11.09
Востаннє: 15.10.17
Повідомлень: 984

2017-05-20 22:16  
FreusLess написано:
Роздайте, будь ласка, цю цікавинку

на роздачі

MasterYura 
Відео Гуртом - фільмокрай
Відео Гуртом - фільмокрай


З нами з: 21.11.09
Востаннє: 15.10.17
Повідомлень: 984

2017-05-29 13:00  
торент оновлено.
Додано ще серії. За що подяка п. Radistka

Ваш часовий пояс: GMT + 2 Години

Нова тема   Відповісти