Кіт Біллі (сезон 3, серії: 6,7,8,11,12,13,?) / Billy the Cat (season 3, episodes: 6,7,8,11,12,13,?) (1994) IPTVRemux

Нові коментарі

Нова тема   Відповісти
Останній раз роздавалося MasterYura (2017-10-22)
Автор Повідомлення
MasterYura 
Відео Гуртом - фільмокрай
Відео Гуртом - фільмокрай


З нами з: 21.11.09
Востаннє: 22.10.17
Повідомлень: 984

2017-04-08 15:44  
Кіт Біллі (сезон 3, серії: 6,7,8,11,12,13,?) /
Billy the Cat (season 3, episodes: 6,7,8,11,12,13,?) /
(1994) IPTVRemux

Кіт Біллі (сезон 3, серії: 6,7,8,11,12,13,?) / Billy the Cat (season 3, episodes: 6,7,8,11,12,13,?) (1994) IPTVRemux


Жанр: Мультфільм, дитячий
Країна: Франція



Кінокомпанія: EVA Entertainment
Режисер: Жан-Пєрр Жаке
Сюжет:
Життя рядового вуличного кота не таке просте, як може здатися на перший погляд. Адже коти можуть розмовляти, потрапляти в дивні пригоди і навіть рятувати один одного. Особливо це стосується головного героя, кошеня Біллі, який в недавньому минулому був сміливим хуліганом. Кожен день Біллі і його друзів з ордена котів повний дивних подій.


Тривалість: 1 серія: 24:00 (цілком серій: 7)
Якість:
Відео:
кодек: MPEG-2 SVCD
розмір кадру: 704 х 576
бітрейт: 2 324 кб/с

Аудіо:
мова: українська
переклад: багатоголосий закадровий
кодек: MP2
бітрейт: 96 кб/с

Джерело озвучення:
Скріншоти




Info
General
ID : 16 (0x10)
Format : MPEG-TS
File size : 402 MiB
Duration : 24 min 32 s
Overall bit rate mode : Variable
Overall bit rate : 2 288 kb/s

Video
ID : 69 (0x45)
Menu ID : 1 (0x1)
Format : MPEG Video
Format version : Version 2
Format profile : Main@Main
Format settings, BVOP : Yes
Format settings, Matrix : Custom
Format settings, GOP : Variable
Codec ID : 2
Duration : 24 min 32 s
Bit rate mode : Variable
Bit rate : 2 078 kb/s
Maximum bit rate : 15.0 Mb/s
Width : 704 pixels
Height : 576 pixels
Display aspect ratio : 4:3
Frame rate : 25.000 FPS
Standard : PAL
Color space : YUV
Chroma subsampling : 4:2:0
Bit depth : 8 bits
Compression mode : Lossy
Bits/(Pixel*Frame) : 0.205
Time code of first frame : 00:00:00:00
Time code source : Group of pictures header
GOP, Open/Closed : Open
GOP, Open/Closed of first fram : Closed
Stream size : 365 MiB (91%)
Writing library : (c) 1998-2011 Womble Multimedia, Inc. / MPEG Video Wizard DVD 5.0.1.100 (03/2011) / Dec 19 2011

Audio
ID : 68 (0x44)
Menu ID : 1 (0x1)
Format : MPEG Audio
Format version : Version 1
Format profile : Layer 2
Codec ID : 3
Duration : 24 min 32 s
Bit rate mode : Constant
Bit rate : 96.0 kb/s
Channel(s) : 1 channel
Sampling rate : 48.0 kHz
Compression mode : Lossy
Delay relative to video : 40 ms
Stream size : 16.8 MiB (4%)
Джерело: ex.ua
Особиста оцінка: 0 - не дивився


Срібний реліз (на рейтинг впливає 50% завантаженого)
 Трекер:    Зареєстрований   

Завантажити / скачати мультфільм українською



відео для новачків



 Зареєстрований:   2017-04-08 15:44
 Розмір:   2.14 GB 
 Оцінка мультсеріалу:   9/10 (Голосів: 1)
   
Patriot_ukr 
VIP


З нами з: 06.04.15
Востаннє: 22.10.17
Повідомлень: 1799

2017-04-08 20:24  
MasterYura написано:
Джерело озвучення:

Скоріш за все -

НТН 
Відео Гуртом - фільмокрай
Відео Гуртом - фільмокрай


З нами з: 25.12.11
Востаннє: 25.09.17
Повідомлень: 2177

2017-04-08 22:02  
Колись я на ексі мав пару серій від Малятко
Там такий саундтрек крутий

MasterYura 
Відео Гуртом - фільмокрай
Відео Гуртом - фільмокрай


З нами з: 21.11.09
Востаннє: 22.10.17
Повідомлень: 984

2017-04-09 00:38  
Patriot_ukr написано:

жерело озвучення:

Скоріш за все -

так і є, промазав на один пункт

Додано через 5 хвилин 47 секунд:

НТН написано:
Колись я на ексі мав пару серій від Малятко

підозрюю що це і є Ваше Happy

Ваш часовий пояс: GMT + 2 Години

Нова тема   Відповісти