Тор / Thor (2011) Remux 1080p Ukr/Eng | Sub Ukr/Eng

Нові коментарі

Нова тема   Відповісти
Автор Повідомлення
Argentum 
Поважний учасник


З нами з: 25.09.11
Востаннє: 14.12.19
Повідомлень: 222

2017-04-07 19:50  
Тор / Thor (2011) Remux 1080p Ukr/Eng | Sub Ukr/Eng

Тор / Thor (2011) Remux 1080p Ukr/Eng | Sub Ukr/Eng
Альтернативний постер


повнорозмірне зображення відкриється по кліку (з натиснутим CTRL чи кліком середньою кнопкою мишки - у новій вкладці)

Жанр: фантастика, фентезі, бойовик
Країна: США



Кінокомпанія: Marvel Studios, Paramount Pictures
Режисер: Кеннет Брана
Актори: Кріс Гемсворт, Наталі Портман, Том Гіддлстон, Ентоні Гопкінс, Стеллан Скарсгард, Ідріс Ельба

Сюжет:
Епічна пригода відбувається як на нашій планеті, так і у королівстві богів Асґарді. В центрі історії — Могутній Тор, сильний, але зарозумілий воїн, чиї безрозсудні вчинки відроджують давню війну в Асґарді. Тора позбавляють сил, відправляють в заслання на Землю, де примушують жити серед звичайних людей як покарання. Тор дізнається, скільки потрібно сил, щоб стати справжнім героєм, коли найнебезпечніший лиходій його світу направляє темні сили поглинути Землю.


Тривалість: 01:54:50
Якість: Remux
Відео:
кодек:
розмір кадру: 1920 х 1080
бітрейт: ~ 27278 кб/с

Аудіо # 1:
мова: українська
переклад: професійний дубльований
кодек: 5.1
бітрейт: 448 кб/с

Аудіо # 2:
мова: англійська
переклад: оригінал
кодек: -HD 7.1
бітрейт: ~ 4928 кб/с

Субтитри:
мова: українська
тип: пререндерні
формат: pgs

Субтитри:
мова: англійська
тип: пререндерні
формат: pgs
Info
General
Unique ID : 34094732153140616879595969624296459940 (0x19A668145042437DF23A54285E790EA4)
Complete name : /home/jack/Videos/My/Thor (2011) [Ukr,Eng] Remux 1080p [Hurtom].
Format :
Format version : Version 4 / Version 2
File size : 26.0 GiB
Duration : 1h 54mn
Overall bit rate mode : Variable
Overall bit rate : 32.4 Mbps
Movie name : Release for HURTOM.COM
Encoded date : UTC 2017-04-07 13:23:50
Writing application : v10.0.0 ('To Drown In You') 64bit
Writing library : libebml v1.3.4 + v1.4.5
Attachments : ogECCeqOQ1AS8JgPfaUsCYVV2So.jpg

Video
ID : 1
Format : AVC
Format/Info : Advanced Video Codec
Format profile : [email protected]
Format settings, CABAC : Yes
Format settings, ReFrames : 4 frames
Format settings, GOP : M=1, N=3
Codec ID : V_MPEG4/ISO/AVC
Duration : 1h 54mn
Bit rate mode : Variable
Bit rate : 27.0 Mbps
Maximum bit rate : 32.0 Mbps
Width : 1 920 pixels
Height : 1 080 pixels
Display aspect ratio : 16:9
Frame rate mode : Constant
Frame rate : 23.976 (24000/1001) fps
Color space : YUV
Chroma subsampling : 4:2:0
Bit depth : 8 bits
Scan type : Progressive
Bits/(Pixel*Frame) : 0.543
Stream size : 21.7 GiB (83%)
Title : AVC @ ~ 27278 Kbps
Default : Yes
Forced : No

Audio #1
ID : 2
Format : AC-3
Format/Info : Audio Coding 3
Mode extension : CM (complete main)
Format settings, Endianness : Big
Codec ID : A_AC3
Duration : 1h 54mn
Bit rate mode : Constant
Bit rate : 448 Kbps
Channel(s) : 6 channels
Channel positions : Front: L C R, Side: L R, LFE
Sampling rate : 48.0 KHz
Frame rate : 31.250 fps (1536 spf)
Compression mode : Lossy
Stream size : 368 MiB (1%)
Title : 5.1 @ ~ 448 Kbps
Language : Ukrainian
Default : Yes
Forced : No

Audio #2
ID : 3
Format :
Format/Info : Digital Theater Systems
Format profile : MA / ES Matrix / Core
Mode : 16
Format settings, Endianness : Big
Codec ID : A_DTS
Duration : 1h 54mn
Bit rate mode : Variable / Constant / Constant
Bit rate : 4 928 Kbps / 1 509 Kbps / 1 509 Kbps
Channel(s) : 8 channels / 7 channels / 6 channels
Channel positions : Front: L C R, Side: L R, Back: L R, LFE / Front: L C R, Side: L R, Back: C, LFE / Front: L C R, Side: L R, LFE
Sampling rate : 48.0 KHz
Frame rate : 93.750 fps (512 spf)
Bit depth : 24 bits
Compression mode : Lossless / Lossy / Lossy
Stream size : 3.95 GiB (15%)
Title : -HD 7.1 @ ~ 4928 Kbps
Language : English
Default : No
Forced : No

Text #1
ID : 4
Format : PGS
Codec ID : S_HDMV/PGS
Codec ID/Info : Picture based subtitle format used on BDs/HD-DVDs
Duration : 1h 54mn
Bit rate : 25.1 Kbps
Count of elements : 2220
Stream size : 20.4 MiB (0%)
Language : Ukrainian
Default : No
Forced : No

Text #2
ID : 5
Format : PGS
Codec ID : S_HDMV/PGS
Codec ID/Info : Picture based subtitle format used on BDs/HD-DVDs
Duration : 1h 53mn
Bit rate : 25.6 Kbps
Count of elements : 2192
Stream size : 20.7 MiB (0%)
Language : English
Default : No
Forced : No
Скріншоти




Джерело: &
Особиста оцінка: 8 - мені сподобалося


Золотий реліз (завантажене не впливає на рейтинг)
 Трекер:    Зареєстрований   

Завантажити / скачати фільм українською



відео для новачків



 Зареєстрований:   2017-08-20 14:18
 Розмір:   26.03 GB 
 Оцінка фільму:   9.2/10 (Голосів: 33)
   
Інші релізи
   Тор / Thor (2011) DVD9 Eng/Rus/Ukr | Ліцензія Beffis  0 / 0   6.36 GB   2012-04-25 14:36 
   Тор / Thor (2011) 720p Ukr/Eng | Sub Ukr/Eng Hurtomivets'  16 / 0   6.59 GB   2011-11-16 21:44 
   Тор / Thor (2011) AVC | Ліцензія Anonymous  4 / 0   1.42 GB   2011-11-16 14:21 
Argentum 
Поважний учасник


З нами з: 25.09.11
Востаннє: 14.12.19
Повідомлень: 222

2017-08-20 14:20  
Додав до torrent файла посилання на web-seed. Прохання перехешувати роздачу!

Ваш часовий пояс: GMT + 2 Години

Нова тема   Відповісти