Сезони / Seasons / Les saisons (2015) 720p Ukr/Fre | sub Ukr/Fre

Нові коментарі

Нова тема   Відповісти
Автор Повідомлення
AngryBirdsUA 
Свій


З нами з: 24.02.10
Востаннє: 19.10.17
Повідомлень: 3037

2017-04-07 11:10  

Сезони / Seasons / Les saisons (2015) 720p Ukr/Fre | sub Ukr/Fre

Сезони / Seasons / Les saisons (2015) 720p Ukr/Fre | sub Ukr/Fre


Жанр: документальний
Країна: Франція, Німеччина



Кінокомпанія: France 2 Cinéma, Galatée Films, Pandora Filmproduktion
Режисер: Жак Перрен, Жак Клюзо
Сюжет:
З-під небес, де ширяють птахи, і з глибин океану, де мешкають кити і гігантські рогаті скати, майстри документалістики Жак Перрен і Жак Клюзо вийшли на берег, щоб представити свій новий фільм. Вони захоплюють глядача в подорож у часі, в європейські ландшафти, якими ті були 20 000 років тому, коли в останній Льодовиковий період людина заселяла їх пліч-о-пліч з дикими звірами. Льодовиковий період, зима, що тривала 80 000 років, завершилися дуже цікавим етапом, коли відносно швидко весь континент покрився безмірним і безкрайнім доісторичним лісом. Нова конфігурація планет привела до появи пір року, ландшафт зазнав метаморфози, розвинулися флора і фауна.


Тривалість: 01:36:02
Якість: 720p
Відео:
кодек:
розмір кадру: 1280x534
бітрейт: 6800 кб/с

Аудіо # 1:
мова: українська
переклад: одноголосий закадровий | Logos71
кодек: 5.1
бітрейт: 640 кб/с

Аудіо # 2:
мова: французька
переклад: оригінал
кодек: 5.1
бітрейт: 640 кб/с

Субтитри:
мова: українська
тип: програмні (м'які)
формат: *.srt

Субтитри:
мова: французька
тип: програмні (м'які)
формат: *.srt
Info
General
Unique ID : 180464382936831244493666205148216501308 (0x87C42D07BD3C3968AFF44198620F243C)
Complete name : D:\Les saisons (2015) 720p [Ukr. Fre] [Sub Ukr. Fre] [Hurtom].
Format :
Format version : Version 4 / Version 2
File size : 5.41 GiB
Duration : 1 h 36 min
Overall bit rate : 8 070 kb/s
Encoded date : UTC 2017-04-06 12:32:33
Writing application : mkvmerge v7.9.0 ('Birds') 64bit
Writing library : libebml v1.3.1 + libmatroska v1.4.2
Attachments : poster.jpg

Video
ID : 1
Format : AVC
Format/Info : Advanced Video Codec
Format profile : [email protected]
Format settings, CABAC : Yes
Format settings, ReFrames : 12 frames
Codec ID : V_MPEG4/ISO/AVC
Duration : 1 h 36 min
Bit rate : 6 800 kb/s
Width : 1 280 pixels
Height : 534 pixels
Display aspect ratio : 2.40:1
Frame rate mode : Constant
Frame rate : 24.000 FPS
Color space : YUV
Chroma subsampling : 4:2:0
Bit depth : 8 bits
Scan type : Progressive
Bits/(Pixel*Frame) : 0.415
Stream size : 4.55 GiB (84%)
Writing library : core 148 r2744kMod b97ae06
Encoding settings : cabac=1 / ref=12 / deblock=1:-3:-3 / analyse=0x3:0x133 / me=tesa / subme=11 / psy=1 / fade_compensate=0.00 / psy_rd=1.10:0.00 / mixed_ref=1 / me_range=32 / chroma_me=1 / trellis=2 / 8x8dct=1 / cqm=0 / deadzone=21,11 / fast_pskip=0 / chroma_qp_offset=-2 / threads=12 / lookahead_threads=2 / sliced_threads=0 / nr=0 / decimate=0 / interlaced=0 / bluray_compat=0 / constrained_intra=0 / bframes=8 / b_pyramid=2 / b_adapt=2 / b_bias=0 / direct=3 / weightb=1 / open_gop=0 / weightp=2 / keyint=240 / keyint_min=2 / scenecut=40 / intra_refresh=0 / rc_lookahead=0 / rc=2pass / mbtree=0 / bitrate=6800 / ratetol=1.0 / qcomp=0.70 / qpmin=0 / qpmax=69 / qpstep=4 / cplxblur=20.0 / qblur=0.5 / vbv_maxrate=50000 / vbv_bufsize=30000 / nal_hrd=none / filler=0 / ip_ratio=1.25 / pb_ratio=1.20 / aq=3:0.90
Default : Yes
Forced : No

Audio #1
ID : 2
Format : AC-3
Format/Info : Audio Coding 3
Format settings, Endianness : Big
Codec ID : A_AC3
Duration : 1 h 36 min
Bit rate mode : Constant
Bit rate : 640 kb/s
Channel(s) : 6 channels
Channel positions : Front: L C R, Side: L R, LFE
Sampling rate : 48.0 kHz
Frame rate : 31.250 FPS (1536 spf)
Bit depth : 16 bits
Compression mode : Lossy
Stream size : 440 MiB (8%)
Language : Ukrainian
Service kind : Complete Main
Default : Yes
Forced : No

Audio #2
ID : 3
Format : AC-3
Format/Info : Audio Coding 3
Format settings, Endianness : Big
Codec ID : A_AC3
Duration : 1 h 36 min
Bit rate mode : Constant
Bit rate : 640 kb/s
Channel(s) : 6 channels
Channel positions : Front: L C R, Side: L R, LFE
Sampling rate : 48.0 kHz
Frame rate : 31.250 FPS (1536 spf)
Bit depth : 16 bits
Compression mode : Lossy
Stream size : 440 MiB (8%)
Language : French
Service kind : Complete Main
Default : No
Forced : No

Text #1
ID : 4
Format : UTF-8
Codec ID : S_TEXT/UTF8
Codec ID/Info : UTF-8 Plain Text
Duration : 1 h 34 min
Bit rate : 9 b/s
Count of elements : 110
Stream size : 6.88 KiB (0%)
Language : Ukrainian
Default : Yes
Forced : No

Text #2
ID : 5
Format : UTF-8
Codec ID : S_TEXT/UTF8
Codec ID/Info : UTF-8 Plain Text
Duration : 1 h 35 min
Bit rate : 14 b/s
Count of elements : 418
Stream size : 10.3 KiB (0%)
Language : French
Default : No
Forced : No

Menu
00:00:00.000 : en:00:00:00.000
00:07:30.333 : en:00:07:30.333
00:13:42.125 : en:00:13:42.125
00:19:33.708 : en:00:19:33.708
00:23:26.333 : en:00:23:26.333
00:27:51.833 : en:00:27:51.833
00:31:46.667 : en:00:31:46.667
00:34:40.375 : en:00:34:40.375
00:45:00.250 : en:00:45:00.250
00:52:30.417 : en:00:52:30.417
00:57:21.458 : en:00:57:21.458
01:04:54.000 : en:01:04:54.000
01:11:41.875 : en:01:11:41.875
01:18:22.708 : en:01:18:22.708
01:23:23.208 : en:01:23:23.208
01:29:17.125 : en:01:29:17.125


Над релізом працювали:
Logos71 - озвучення
Hanway - монтаж звуку

Джерело: &
Особиста оцінка: 10 - без зайвих вагань рекомендую всім!


Авторський реліз (завантажувати можна без реєстрації)
 Трекер:    Зареєстрований   

Завантажити / скачати фільм українською



відео для новачків



 Зареєстрований:   2017-04-07 11:25
 Розмір:   5.41 GB 
 Оцінка фільму:   7.3/10 (Голосів: 36)
   
casper101 
Поважний учасник


З нами з: 03.12.09
Востаннє: 20.10.17
Повідомлень: 232

2017-04-07 12:46  
хто підскаже чи варто завантажувати???
panama58 
Свій


З нами з: 05.12.08
Востаннє: 18.10.17
Повідомлень: 60

2017-04-07 14:50  
casper101 написано:
imdb рейтинг каже качати. а власний досвід ще й говорить, що озвучка цього пана розкішна.

Pinguin 
Поважний учасник


З нами з: 08.04.12
Востаннє: 20.10.17
Повідомлень: 219

2017-04-08 11:45  
а чому реліз не авторський?
AngryBirdsUA 
Свій


З нами з: 24.02.10
Востаннє: 19.10.17
Повідомлень: 3037

2017-04-08 13:30  
Pinguin
Бо так модератори вирішили(

Додано через 5 хвилин 50 секунд:

casper101 написано:
хто підскаже чи варто завантажувати???

Варто, один з не багатьох фільмів який розповідає про тварин які є і в нас, сам зустрічав половину з них.

igor911 
Відео Гуртом
Відео Гуртом


З нами з: 18.01.08
Востаннє: 20.10.17
Повідомлень: 7931

2017-04-08 13:31  
Pinguin написано:
а чому реліз не авторський?

моя помилка, виправив.

Студія Hurtom 
Відео Гуртом - фільмокрай
Відео Гуртом - фільмокрай


З нами з: 16.01.15
Востаннє: 20.10.17
Повідомлень: 670

2017-04-10 21:37  
Бачив трейлер) http://www.allocine.fr/video/player_gen_cmedia=19559034&cfilm=228541.html якби ще його озвучили було б чудово.
megaKpbIcak 
Новенький


З нами з: 19.12.16
Востаннє: 13.10.17
Повідомлень: 4

2017-04-13 22:57  
Прекрасний фільм! 10!
Але оце "aucun animal n'a été maltraité pour les besoins du film" треба було писати з початку Happy

Додано через 1 хвилину 9 секунд:

casper101
Варто!

Focs 
Частий відвідувач


З нами з: 23.03.08
Востаннє: 18.10.17
Повідомлень: 25

2017-04-16 13:16  
Після перегляду, дійшов єдиного висновка - людство не заслужило жити на цій планеті!
mem3317 
Новенький


З нами з: 05.03.15
Востаннє: 15.10.17
Повідомлень: 8

2017-04-19 21:11  
Класний фільм, рекомендую! Такий собі погляд на природу з іншого боку
Форкуш 
VIP


З нами з: 03.02.10
Востаннє: 20.10.17
Повідомлень: 1880

2017-05-02 09:38  
Чудовий фільм, неймовірні зйомки. Як вони це робили, цікаво... 9/10
EvGaS 
Відео Гуртом - субтитрування
Відео Гуртом - субтитрування


З нами з: 27.02.12
Востаннє: 20.10.17
Повідомлень: 4095

2017-05-02 10:39  
Форкуш написано:
неймовірні зйомки. Як вони це робили, цікаво...

ХХІст: вже є не лишень фоторушниці та фотопастки з плівками та гарною оптикою, але й камери сповільненої/пришвидшеної зйомки, тепловізори, нічне бачення, поляризаційне бачення, лазери, дрони, радіокерування, мікросхеми, мініатюрні гіроскопи й компаси, мови програмування…

Nkit 
Новенький


З нами з: 13.12.16
Востаннє: 14.10.17
Повідомлень: 8

2017-06-12 19:52  
За РЕАЛЬНЕ вбивство у фільмі 3 вовків та сови - треба виловити режисера та усіх причастних, ї*алом ткнути у ту залізну пастку, яка переломала ноги, не у чому не повинній сові. Я би це реально зробив, але на жаль є багато перешкод, як мінімум, цього не дозволяє законодавство.
Ваш часовий пояс: GMT + 2 Години

Нова тема   Відповісти