Сезони / Seasons / Les saisons (2015) 720p Ukr/Fre | sub Ukr/Fre

Нові коментарі

Нова тема   Відповісти
немає
Автор Повідомлення
AngryBirdsUA 
Свій


З нами з: 24.02.10
Востаннє: 17.08.17
Повідомлень: 3097

2017-04-07 10:00  
Сезони / Seasons / Les saisons (2015) 720p Ukr/Fre | sub Ukr/Fre

Сезони / Seasons / Les saisons (2015) 720p Ukr/Fre | sub Ukr/Fre


Жанр: документальний
Країна: Франція, Німеччина



Кінокомпанія: France 2 Cinéma, Galatée Films, Pandora Filmproduktion
Режисер: Жак Перрен, Жак Клюзо
Сюжет:
З-під небес, де ширяють птахи, і з глибин океану, де мешкають кити і гігантські рогаті скати, майстри документалістики Жак Перрен та Жак Клюзо вийшли на берег, щоб представити свій новий фільм. Вони захоплюють глядача в подорож у часі, в європейські ландшафти, якими вони були 20 000 років тому, коли в останній Льодовиковий період людина заселяла їх пліч-о-пліч з дикими звірами. Льодовиковий період, зима, що тривала 80 000 років, завершилися дуже цікавий етап, коли відносно швидко весь континент покрився безмірний і безкрайніх доісторичним лісом. Нова конфігурація планет привела до появи пір року, ландшафт зазнав метаморфози, розвинулися флора і фауна.


Тривалість: 01:36:02
Якість:
Відео:
кодек:
розмір кадру: 1280x534
бітрейт: 6800 кб/с

Аудіо # 1:
мова: українська
переклад: одноголосий закадровий | Logos71
кодек: 5.1
бітрейт: 640 кб/с

Аудіо # 2:
мова: французька
переклад: оригінал
кодек: 5.1
бітрейт: 640 кб/с

Субтитри:
мова: українська
тип: програмні (м'які)
формат: *.srt

Субтитри:
мова: французька
тип: програмні (м'які)
формат: *.srt
Info
Service kind : Complete Main
Default : Yes
Forced : No

Audio #2
ID : 3
Format : AC-3
Format/Info : Audio Coding 3
Format settings, Endianness : Big
Codec ID : A_AC3
Duration : 1 h 36 min
Bit rate mode : Constant
Bit rate : 640 kb/s
Channel(s) : 6 channels
Channel positions : Front: L C R, Side: L R, LFE
Sampling rate : 48.0 kHz
Frame rate : 31.250 FPS (1536 spf)
Bit depth : 16 bits
Compression mode : Lossy
Stream size : 440 MiB (8%)
Language : French
Service kind : Complete Main
Default : No
Forced : No

Text #1
ID : 4
Format : UTF-8
Codec ID : S_TEXT/UTF8
Codec ID/Info : UTF-8 Plain Text
Duration : 1 h 34 min
Bit rate : 9 b/s
Count of elements : 110
Stream size : 6.88 KiB (0%)
Language : Ukrainian
Default : Yes
Forced : No

Text #2
ID : 5
Format : UTF-8
Codec ID : S_TEXT/UTF8
Codec ID/Info : UTF-8 Plain Text
Duration : 1 h 35 min
Bit rate : 14 b/s
Count of elements : 418
Stream size : 10.3 KiB (0%)
Language : French
Default : No
Forced : No

Menu
00:00:00.000 : en:00:00:00.000
00:07:30.333 : en:00:07:30.333
00:13:42.125 : en:00:13:42.125
00:19:33.708 : en:00:19:33.708
00:23:26.333 : en:00:23:26.333
00:27:51.833 : en:00:27:51.833
00:31:46.667 : en:00:31:46.667
00:34:40.375 : en:00:34:40.375
00:45:00.250 : en:00:45:00.250
00:52:30.417 : en:00:52:30.417
00:57:21.458 : en:00:57:21.458
01:04:54.000 : en:01:04:54.000
01:11:41.875 : en:01:11:41.875
01:18:22.708 : en:01:18:22.708
01:23:23.208 : en:01:23:23.208
01:29:17.125 : en:01:29:17.125


Над релізом працювали:
Logos71 - озвучення
Hanway - монтаж звуку

Джерело:
Особиста оцінка: 10 - без зайвих вагань рекомендую всім!
Ваш часовий пояс: GMT + 2 Години

Нова тема   Відповісти