Рік та Морті (Сезон 3, серії 1-3) / Rick and Morty (Season 3, episodes 1-3) (2017) 720p

Нові коментарі

Нова тема   Відповісти
Сторінка:  1, 2  наступна
Автор Повідомлення
Anonymous 







2017-04-06 22:53  
Рік та Морті (Сезон 3, серії 1-3) / Rick and Morty (Season 3, episodes 1-3) (2017) 720p

Рік та Морті (Сезон 3, серії 1-3) / Rick and Morty (Season 3, episodes 1-3) (2017) 720p


Жанр: пригоди, комедія
Країна: США



Кіностудія / кінокомпанія: Harmonius Claptrap, Justin Roiland's Solo, Vanity Card Productions Starburns Industries, Williams Street
Режисер: Ден Гамон
Ролі озвучують: Джастін Ройленд, Кріс Панел, Спенсер Граммер та ін.

Сюжет:
Довгоочікуване повернення неймовірних, захоплюючих пригод Ріка та Морті, сповнених абсурду, трешу та мозковиносного гумору. В центрі сюжету, як і раніше Рік Санчез - навіжений пияк-винахідник та його онук Морті - недолугий школяр. У третьому сезоні на нас чекає іще більше пригод, після перегляду яких думаєш 'що це, в дідька, я щойно подивився'.


Тривалість: 22:03, серій: 1-3 з XX
Перелік серій:

Епізод 1: Рікова ножова відплата
Епізод 2: Рікова манія камню
Епізод 3: Рік Огірок
Якість: 720p
Відео:
кодек:
розмір кадру: 1280 х 720
бітрейт: ~3000 кб/с

Аудіо # 1:
мова: українська
переклад: дубляж
кодек: FLAC 2.0
бітрейт: 512 кб/с

Скріншоти



Звіт Info

General
Unique ID : 186272819090643936365952532463006940149 (0x8C22D70AF98228A682312BC5CC227BF5)
Complete name : S:\Files\Video\Rick_and_Morty_S03\Rick_and_Morty_S03E02_[720p].
Format :
Format version : Version 4 / Version 2
File size : 595 MiB
Duration : 22 min 46 s
Overall bit rate mode : Variable
Overall bit rate : 3 654 kb/s
Encoded date : UTC 2017-09-07 21:44:46
Writing application : mkvmerge v9.4.0 ('Knurl') 64bit
Writing library : libebml v1.3.4 + libmatroska v1.4.5
Cover : Yes
Attachments : cover.jpg

Video
ID : 1
Format : AVC
Format/Info : Advanced Video Codec
Format profile : [email protected]
Format settings, CABAC : Yes
Format settings, ReFrames : 5 frames
Codec ID : V_MPEG4/ISO/AVC
Duration : 22 min 37 s
Bit rate : 2 815 kb/s
Nominal bit rate : 3 000 kb/s
Width : 1 280 pixels
Height : 720 pixels
Display aspect ratio : 16:9
Frame rate mode : Constant
Frame rate : 23.976 (24000/1001) FPS
Color space : YUV
Chroma subsampling : 4:2:0
Bit depth : 8 bits
Scan type : Progressive
Bits/(Pixel*Frame) : 0.127
Stream size : 456 MiB (77%)
Writing library : core 130 r2273 b3065e6
Encoding settings : cabac=1 / ref=5 / deblock=1:0:0 / analyse=0x3:0x113 / me=umh / subme=8 / psy=1 / psy_rd=1.00:0.00 / mixed_ref=1 / me_range=16 / chroma_me=1 / trellis=1 / 8x8dct=1 / cqm=0 / deadzone=21,11 / fast_pskip=1 / chroma_qp_offset=-2 / threads=12 / lookahead_threads=2 / sliced_threads=0 / nr=0 / decimate=1 / interlaced=0 / bluray_compat=0 / constrained_intra=0 / bframes=3 / b_pyramid=2 / b_adapt=2 / b_bias=0 / direct=3 / weightb=1 / open_gop=0 / weightp=2 / keyint=240 / keyint_min=24 / scenecut=40 / intra_refresh=0 / rc_lookahead=50 / rc=abr / mbtree=1 / bitrate=3000 / ratetol=1.0 / qcomp=0.60 / qpmin=0 / qpmax=69 / qpstep=4 / vbv_maxrate=25000 / vbv_bufsize=31250 / nal_hrd=none / ip_ratio=1.40 / aq=1:1.00
Language : English
Default : Yes
Forced : No
Color range : Limited
Color primaries : BT.709
Transfer characteristics : BT.709
Matrix coefficients : BT.709

Audio
ID : 2
Format : FLAC
Format/Info : Free Lossless Audio Codec
Codec ID : A_FLAC
Duration : 22 min 46 s
Bit rate mode : Variable
Bit rate : 840 kb/s
Channel(s) : 2 channels
Channel positions : Front: L R
Sampling rate : 48.0 kHz
Frame rate : 11.719 FPS (4096 spf)
Bit depth : 16 bits
Stream size : 137 MiB (23%)
Title : Т.С.Струґачка & FanVoxUA
Writing library : libFLAC 20080709 (UTC 2008-07-09)
Language : Ukrainian
Default : Yes
Forced : No
Переклад та озвучення виконано:FanVoxUA & Т.С. Струґачка

Особиста оцінка: 10 - без зайвих вагань рекомендую всім!





Авторський реліз (завантажувати можна без реєстрації)
 Трекер:    Зареєстрований   

Завантажити / скачати мультфільм українською



відео для новачків



 Зареєстрований:   2017-09-15 18:56
 Розмір:   1.68 GB 
 Оцінка мультсеріалу:   8.7/10 (Голосів: 77)
   
DEMO 
Свій


З нами з: 21.05.09
Востаннє: 20.09.17
Повідомлень: 53

2017-04-06 23:16  
Нарешті! Wide grin
NEON252 
Новенький


З нами з: 28.01.10
Востаннє: 10.09.17
Повідомлень: 9

2017-04-07 00:01  
Ну Ви швидкі!
leicheman 
Відео Гуртом - підтримка та поширення
Відео Гуртом - підтримка та поширення


З нами з: 03.07.14
Востаннє: 20.09.17
Повідомлень: 1183

2017-04-07 00:02  
кому цікаво, то наступні серії аж влітку
igor911 
Відео Гуртом
Відео Гуртом


З нами з: 18.01.08
Востаннє: 20.09.17
Повідомлень: 7679

2017-04-07 00:15  
Додайте перелік серій.
slavikgreen 
Частий відвідувач


З нами з: 06.04.10
Востаннє: 20.09.17
Повідомлень: 27

2017-04-07 00:20  
O-o-o-o-o!!!! Та-а-а-ак!! ))
Ko3a4eK 
Новенький


З нами з: 03.03.14
Востаннє: 09.09.17
Повідомлень: 8

2017-04-07 10:36  
Пекельний мультик)
p.chernitsov 
Новенький


З нами з: 23.11.16
Востаннє: 29.08.17
Повідомлень: 1

2017-04-07 10:55  
Дякую, хлопці! Щоб ми без вас робили?))
Beats 
Новенький


З нами з: 03.05.15
Востаннє: 14.09.17
Повідомлень: 12

2017-04-07 11:21  
А буде 1080p?
Anonymous 







2017-04-07 11:22  
Beats, з початком повноцінної трансляції влітку буде 1080р і повне дублювання.
Beats 
Новенький


З нами з: 03.05.15
Востаннє: 14.09.17
Повідомлень: 12

2017-04-07 12:19  
Дякую!
molinski 
Частий відвідувач


З нами з: 04.09.12
Востаннє: 18.09.17
Повідомлень: 39

2017-04-07 19:45  
Фап фап
piznajko 
Відео Гуртом - субтитрування
Відео Гуртом - субтитрування


З нами з: 24.02.09
Востаннє: 20.09.17
Повідомлень: 1368

2017-04-07 23:59  
О у єєє, нарешті.
Patriot_ukr 
VIP


З нами з: 06.04.15
Востаннє: 20.09.17
Повідомлень: 1784

2017-04-08 21:41  
Піду похезаю (с)

Додано через 19 хвилин 22 секунди:

Anonymous написано:
(2015)

помилочка

EarthPhantom 
Новенький


З нами з: 23.09.12
Востаннє: 14.09.17
Повідомлень: 4

2017-04-13 20:49  
Anonymous,
Дякую за переклад, але чому відразу не зробити доріжку в 5.1?

fridomfighter 
Новенький


З нами з: 01.12.16
Востаннє: 20.09.17
Повідомлень: 18

2017-05-18 14:54  
Підкажіть чи будуть нові серії
Dark Invader 
Модератор відео


З нами з: 06.01.11
Востаннє: 20.09.17
Повідомлень: 2037

2017-05-18 14:58  
fridomfighter написано:
Підкажіть чи будуть нові серії

Будуть влітку.

AdrianZP 
Частий відвідувач


З нами з: 28.08.14
Востаннє: 20.09.17
Повідомлень: 41

2017-05-26 22:58  
EarthPhantom
5.1 не буде, оскільки, як буде повноцінний вихід серіалу буде повноцінний дубляж, а не закадр. І технічно це буде неможливо реалізувати. Якби у нас були офіційні доріжки 5.1 без оригінальних голосів, то без питань.

-_-B_E_N_D_E_R-_- 
Оцифрування книг Гуртом
Оцифрування книг Гуртом


З нами з: 09.01.14
Востаннє: 20.09.17
Повідомлень: 204

2017-06-06 02:46  
Вже шість днів літо, де трясця вашій матері нові серії?
Patriot_ukr 
VIP


З нами з: 06.04.15
Востаннє: 20.09.17
Повідомлень: 1784

2017-06-06 14:07  
-_-B_E_N_D_E_R-_-, біс його зна. Коли покажуть у Гамериці, тоді й буде

Додано через 8 хвилин 31 секунду:

11 і 12 числа показуватимуть по Едулт Свім по дві серії (С2Е01-С2Е04), можливо після закінчення показу другого сезону показуватимуть третій

4d4m 
Новенький


З нами з: 07.02.14
Востаннє: 20.09.17
Повідомлень: 1

2017-06-30 13:27  
Rick and Morty Season 3 Trailer. Нові епізоди з 30 липня

Ronooon 
Новенький


З нами з: 10.09.14
Востаннє: 19.09.17
Повідомлень: 3

2017-07-31 18:48  
Вийшла 2-га серія. Чекаю з нетерпінням перекладу.
nyH4 
Новенький


З нами з: 15.12.09
Востаннє: 20.09.17
Повідомлень: 8

2017-08-04 15:50  
коли вже друга серія? Happy
(erhiy 
Новенький


З нами з: 02.09.12
Востаннє: 19.09.17
Повідомлень: 7

2017-08-05 11:41  
wuba luba dub dub!!!
Nychkalo 
Новенький


З нами з: 25.02.10
Востаннє: 20.09.17
Повідомлень: 22

2017-08-13 11:52  
Писав до FanVoxUa у Фейсбуці - казали, шо друга серія в процесі)
nyH4 
Новенький


З нами з: 15.12.09
Востаннє: 20.09.17
Повідомлень: 8

2017-08-20 14:31  
третя вже вийшла?
chіef 
Поважний учасник


З нами з: 20.04.15
Востаннє: 20.09.17
Повідомлень: 223

2017-08-21 10:00  
nyH4 Вже і п'ята вийшла
nyH4 
Новенький


З нами з: 15.12.09
Востаннє: 20.09.17
Повідомлень: 8

2017-08-21 12:08  
chіef
ого!

Bod_zik99 
VIP


З нами з: 28.12.13
Востаннє: 20.09.17
Повідомлень: 1198

2017-08-28 13:54  
Коли буде продовження?
alexanderwolf 
Новенький


З нами з: 21.04.14
Востаннє: 20.09.17
Повідомлень: 1

2017-08-31 10:09  
схоже на мультик забили
Ваш часовий пояс: GMT + 2 Години

Нова тема   Відповісти Сторінка:  1, 2  наступна