ҐАНЦ:О / GANTZ:O [2016] 1080p Ukr/Jap

Нові коментарі

Нова тема   Відповісти
Автор Повідомлення
Arch Enemy 
VIP


З нами з: 30.08.12
Востаннє: 14.08.17
Повідомлень: 644

2017-04-06 18:35  
ҐАНЦ:О / GANTZ:O



Вікове обмеження: 16+

Країна: Японія
Дата виходу: 14.10.2016
Жанр: пригоди, фантастика, драма, жахи

Тривалість: 01 год. 35хв. 12 сек.

Режисер: Сато Кеїчі
Автор оригіналу: Оку Хіроя
Студія: Digital Frontier
Сейю: Оно Дайске (Като Масару), Каку Томохіро (Ніші Джоічіро), Хаямі Саорі (Шімохіра Рейка), Мао (Ямазакі Анзу), Ікеда Шуічі (Сузукі Йошіказу), Кендо Кобаяші (Ока Хачіро) та інші.

Сюжет:
Одного прекрасного дня молодому 17-річному хлопцю на ім'я Като Масару не поталанило... померти. І, на свій подив, після смерті Като опинився не в потойбічному світі, а в звичайній квартирі десь у Токіо... Втім, не такій уже й звичайній - в квартирі, разом із такими ж «мерцями» і таємничою чорною сферою під назвою «Ґанц». Тепер життя Като належить «Ґанцу», і єдиний шлях для нього - дотримуватися правил: битися, набирати очки і, найголовніше, виживати.
Екранізована арка манги, де герої виконують завдання в Осаці.

© MadGuy, aniua.com

Відео:
якість:
контейнер:
кодек:
частота кадрів: 23.976 кадрів/сек.
розмір кадру: 1920х1036 пікс.
бітрейт: ~10000 кбіт/сек.
бітність: 10 біт.

Аудіо # 1:
мова: українська, двоголосе закадрове озвучення.
кодек:
кількість каналів: 5.1
бітрейт: 1509 кбіт/сек.
частота: 48000 Гц

Аудіо # 2:
мова: японська, оригінал
кодек:
кількість каналів: 5.1
бітрейт: 1509 кбіт/сек.
частота: 48000 Гц

Джерело озвучення та релізу: AniUA

текст читали: ТвійТатко та Атер Катта
переклад: MadGuy
таймінг та робота зі звуком: TechnoArt
контроль якості та 5.1 мастерінг: Arch_Enemy
Скріншоти
Скрінлист
MI
General
Unique ID : 173550147763287779975498779454801358909 (0x82908AEAA710DA069C664B5A2E6EB03D)
Complete name : D:\Anime\[AniUA]_Gantz_O_[UKR_JAP]_[x264_1920x1036_Hi10P_DTS_5.1_BDRip]_[TviyTatko_and_Ater_Catta].
Format :
Format version : Version 4 / Version 2
File size : 8.82 GiB
Duration : 1 h 35 min
Overall bit rate : 13.3 Mb/s
Movie name : GANTZ:O by AniUA
Encoded date : UTC 2017-04-05 15:06:10
Writing application : mkvmerge v10.0.0 ('To Drown In You') 64bit
Writing library : libebml v1.3.4 + libmatroska v1.4.5

Video
ID : 1
Format : AVC
Format/Info : Advanced Video Codec
Format profile : High [email protected]
Format settings, CABAC : Yes
Format settings, ReFrames : 16 frames
Codec ID : V_MPEG4/ISO/AVC
Duration : 1 h 35 min
Bit rate : 10.2 Mb/s
Width : 1 920 pixels
Height : 1 036 pixels
Display aspect ratio : 1.85:1
Frame rate mode : Constant
Frame rate : 23.976 (24000/1001) FPS
Color space : YUV
Chroma subsampling : 4:2:0
Bit depth : 10 bits
Scan type : Progressive
Bits/(Pixel*Frame) : 0.215
Stream size : 6.81 GiB (77%)
Title : http://aniua.com/
Writing library : core 148 r2721kMod 72d53ab
Encoding settings : cabac=1 / ref=16 / deblock=1:-2:-2 / analyse=0x3:0x133 / me=umh / subme=10 / psy=1 / fade_compensate=0.00 / psy_rd=1.00:0.15 / mixed_ref=1 / me_range=24 / chroma_me=1 / trellis=2 / 8x8dct=1 / cqm=0 / deadzone=21,11 / fast_pskip=0 / chroma_qp_offset=-3 / threads=18 / lookahead_threads=4 / sliced_threads=0 / nr=0 / decimate=1 / interlaced=0 / bluray_compat=0 / constrained_intra=0 / fgo=0 / bframes=16 / b_pyramid=2 / b_adapt=2 / b_bias=0 / direct=3 / weightb=1 / open_gop=0 / weightp=2 / keyint=250 / keyint_min=23 / scenecut=40 / intra_refresh=0 / rc_lookahead=60 / rc=2pass / mbtree=1 / bitrate=10240 / ratetol=1.0 / qcomp=0.60 / qpmin=0 / qpmax=81 / qpstep=4 / cplxblur=20.0 / qblur=0.5 / ip_ratio=1.40 / aq=1:1.00
Language : Japanese
Default : Yes
Forced : Yes

Audio #1
ID : 2
Format :
Format/Info : Digital Theater Systems
Mode : 16
Format settings, Endianness : Big
Codec ID : A_DTS
Duration : 1 h 35 min
Bit rate mode : Constant
Bit rate : 1 509 kb/s
Channel(s) : 6 channels
Channel positions : Front: L C R, Side: L R, LFE
Sampling rate : 48.0 kHz
Frame rate : 93.750 FPS (512 spf)
Bit depth : 24 bits
Compression mode : Lossy
Stream size : 1.00 GiB (11%)
Title : ТвійТатко та Атер Катта
Language : Ukrainian
Default : Yes
Forced : Yes

Audio #2
ID : 3
Format :
Format/Info : Digital Theater Systems
Mode : 16
Format settings, Endianness : Big
Codec ID : A_DTS
Duration : 1 h 35 min
Bit rate mode : Constant
Bit rate : 1 509 kb/s
Channel(s) : 6 channels
Channel positions : Front: L C R, Side: L R, LFE
Sampling rate : 48.0 kHz
Frame rate : 93.750 FPS (512 spf)
Bit depth : 24 bits
Compression mode : Lossy
Stream size : 1.00 GiB (11%)
Title : Original
Language : Japanese
Default : No
Forced : No


Авторський реліз (завантажувати можна без реєстрації)
 Трекер:    Зареєстрований   

Завантажити / скачати аніме українською



відео для новачків



 Зареєстрований:   2017-04-06 18:36
 Розмір:   8.82 GB 
 Оцінка аніме:   9.7/10 (Голосів: 9)
   
eXteSy- 
VIP


З нами з: 06.04.09
Востаннє: 17.08.17
Повідомлень: 1591

2017-04-06 22:09  
Будуть релізи меншого розміру?
Jani307 
Свій


З нами з: 09.06.14
Востаннє: 18.08.17
Повідомлень: 68

2017-04-06 22:23  
Так уже є.
https://toloka.to/t81087

Arch Enemy 
VIP


З нами з: 30.08.12
Востаннє: 14.08.17
Повідомлень: 644

2017-04-06 22:58  
eXteSy- написано:
Будуть релізи меншого розміру?

720p завтра близько 17:00

Jani307 написано:

Так уже є.
https://toloka.to/t81087

Уважніше, там субтитри, та й переклад від іншої людини, а тут озвучка.
І там не , а

Ваш часовий пояс: GMT + 2 Години

Нова тема   Відповісти