П'ятдесят відтінків темряви / Fifty Shades Darker (2017) 720p Ukr/Eng

Нові коментарі

Нова тема   Відповісти
Автор Повідомлення
Anonymous 







2017-04-06 10:10  
П'ятдесят відтінків темряви / Fifty Shades Darker (2017) 720p Ukr/Eng

П'ятдесят відтінків темряви / Fifty Shades Darker (2017) 720p Ukr/Eng
Альтернативні постери




повнорозмірні зображення відкриються по кліку (з натиснутим CTRL чи кліком середньою кнопкою мишки - у новій вкладці)

Жанр: драма, мелодрама
Країна: США



Кінокомпанія: Universal Pictures, Perfect World Pictures (Beijing)
Режисер: Джеймс Фолі / James Foley
Актори: Дакота Джонсон / Dakota Johnson, Джеймі Дорнан / Jamie Dornan, Ерік Джонсон / Eric Johnson, Елоїза Мамфорд / Eloise Mumford, Белла Гіткот / Bella Heathcote, Ріта Ора / Rita Ora, Люк Ґраймс / Luke Grimes, Віктор Расук / Victor Rasuk, Кім Бесінджер / Kim Basinger, Дерек Ґрін / Derek Green, Макс Мартіні / Max Martini, Марча Ґей Гарден / Marcia Gay Harden та інші

Сюжет:
Події блокбастера 2015 року стрімко розвиваються, але таємниці минулого ставлять під загрозу майбутнє Анастейші і містера Грея. Незважаючи на свої страхи, дівчина вирішує дати їхнім стосункам шанс, але умови буде диктувати вона...
Офіційні українські трейлери:



Рейтинг MPAA: R - особам до 17 років обов'язкова присутність батьків або дорослого опікуна
Вікова категорія: 16+
Тривалість: 01:57:48
Якість: 720p
Відео:
кодек:
розмір кадру: 1280x532
бітрейт: 4082 кб/с

Аудіо #1:
мова: українська
переклад: професійний дубльований | LeDoyen
кодек: 2.0
бітрейт: 192 кб/с
Інформація про дубляж
Переклад: Тетяна Коробкова
Режисер дубляжу: Ольга Фокіна
Звукорежисер: Альона Шиманович
Звукорежисер перезапису: Олег Кульчицький
Координатор: Мирослава Сидорук
Ролі дублювали: Дарина Муращенко, Андрій Самінін, Дмитро Гаврилов, Лариса Руснак, Юлія Перенчук, Володимир Остапчук, Ніна Касторф, Микола Боклан, Роман Молодій, Юлія Шаповалова та інші
Фільм надано компанією UPI, дубльовано та зміксовано студією LeDoyen на замовлення B&H Film Distribution
Аудіо #2:
мова: англійська
переклад: оригінал
кодек: 2.0
бітрейт: 192 кб/с

Субтитри :
мова: російська (на написи)
тип: вбудовані (жорсткі)

Збережено оригінальні розділи
Info
Код:
Format                      :
Format version              : Version 4 / Version 2
File size                   : 3.68 GiB
Duration                    : 1 h 57 min
Overall bit rate            : 4 468 kb/s

Video
ID                          : 1
Format                      : AVC
Format/Info                 : Advanced Video Codec
Format profile              : [email protected]
Format settings, CABAC      : No
Format settings, ReFrames   : 2 frames
Codec ID                    : V_MPEG4/ISO/AVC
Duration                    : 1 h 57 min
Bit rate                    : 4 082 kb/s
Width                       : 1 280 pixels
Height                      : 532 pixels
Display aspect ratio        : 2.40:1
Frame rate mode             : Constant
Frame rate                  : 23.976 (23976/1000) FPS
Color space                 : YUV
Chroma subsampling          : 4:2:0
Bit depth                   : 8 bits
Scan type                   : Progressive
Bits/(Pixel*Frame)          : 0.250
Stream size                 : 3.36 GiB (91%)
Title                       : П'ятдесят відтінків темряви / Fifty Shades Darker (2017) 720p [iTunes Rus]
Language                    : English
Default                     : Yes
Forced                      : No
Color range                 : Limited
Color primaries             : BT.709
Transfer characteristics    : BT.709
Matrix coefficients         : BT.709

Audio #1
ID                          : 2
Format                      : AC-3
Format/Info                 : Audio Coding 3
Format settings, Endianness : Big
Codec ID                    : A_AC3
Duration                    : 1 h 57 min
Bit rate mode               : Constant
Bit rate                    : 192 kb/s
Channel(s)                  : 2 channels
Channel positions           : Front: L R
Sampling rate               : 48.0 kHz
Frame rate                  : 31.250 FPS (1536 spf)
Bit depth                   : 16 bits
Compression mode            : Lossy
Delay relative to video     : 28 ms
Stream size                 : 162 MiB (4%)
Title                       : Dub [Line, LeDoyen] 2.0 192 Kbps [Hurtom-Covenant]
Language                    : Ukrainian
Service kind                : Complete Main
Default                     : Yes
Forced                      : Yes

Audio #2
ID                          : 3
Format                      : AC-3
Format/Info                 : Audio Coding 3
Format settings, Endianness : Big
Codec ID                    : A_AC3
Duration                    : 1 h 57 min
Bit rate mode               : Constant
Bit rate                    : 192 kb/s
Channel(s)                  : 2 channels
Channel positions           : Front: L R
Sampling rate               : 48.0 kHz
Frame rate                  : 31.250 FPS (1536 spf)
Bit depth                   : 16 bits
Compression mode            : Lossy
Stream size                 : 162 MiB (4%)
Title                       : Original, 2.0 192 Kbps
Language                    : English
Service kind                : Complete Main
Default                     : No
Forced                      : No

Menu
00:00:00.000                : en:1
00:05:15.482                : en:2
00:11:30.273                : en:3
00:16:09.593                : en:4
00:22:36.896                : en:5
00:26:52.359                : en:6
00:34:57.886                : en:7
00:42:04.479                : en:8
00:47:55.079                : en:9
00:55:30.742                : en:10
01:03:23.297                : en:11
01:09:16.274                : en:12
01:16:04.140                : en:13
01:21:54.114                : en:14
01:26:54.914                : en:15
01:32:14.483                : en:16
01:37:46.439                : en:17
01:42:42.067                : en:18
01:47:58.967                : en:19
01:51:52.700                : en:20



Підтримайте порятунок українського звуку у темі "Контент для придбання"


Джерело: &
Подяка Covenant'у за український звук


 Трекер:    Зареєстрований   

Завантажити / скачати фільм українською



відео для новачків



 Зареєстрований:   2017-04-06 14:41
 Розмір:   3.68 GB 
 Оцінка фільму:   4.9/10 (Голосів: 32)
   
Ваш часовий пояс: GMT + 2 Години

Нова тема   Відповісти