SuperАЛІБІ / Alibi.com (2017) 720p

Нові коментарі

Нова тема   Відповісти
Автор Повідомлення
Anonymous 







2017-04-06 08:54  
SuperАЛІБІ / Alibi.com (2017) 720p

SuperАЛІБІ / Alibi.com (2017) 720p

Жанр: комедія
Країна: Франція



Кінокомпанія: Fechner Films, TF1 Droits Audiovisuels, StudioCanal, TF1 Films Production, CN5 Productions, Palatine Étoile 14, Canal+, Ciné+, TF1, TMC
Режисер: Філіпп Лашо / Philippe Lacheau
Актори: Філіпп Лашо / Philippe Lacheau, Елоді Фонтан /Élodie Fontan, Жюльєн Арруті / Julien Arruti, Тарек Будалі / Tarek Boudali, Дідьє Бурдон / Didier Bourdon Didier Bourdon, Наталі Бай / Nathalie Baye, Меді Садун / Medi Sadoun, Венсан Дезанья / Vincent Desagnat, Філіпп Дюкен / Philippe Duquesne, Кад Мерад / Kad Merad, Самі Насері / Samy Naceri та інші

Сюжет:
Ви хочете відпочити від рутинного життя, але не можете придумати відмазку? Ви затятий футбольний фанат, але сім'я не поділяє Ваших захоплень і не дає Вам сходити на матч? Або у Вас інтрижка з молодою дівчиною, і потрібне надійне прикриття? Тоді звертайтеся в новий проект Грега alibi.com. Креативна команда допоможе Вам створити прекрасне алібі на будь-який випадок життя. Як же здивувався Грег, коли в батькові своєї дівчини він впізнав нового клієнта. Хлопець разом зі своїми друзями повинен вигадувати все нові і нові хитрощі, щоб врятувати брехливого батька від гніву сімейства.

Вікова категорія: 16+
Тривалість: 01:25:41
Якість: 720p
Відео:
кодек:
розмір кадру: [email protected] [анаморфний піксель, на екрані буде відображатись як 1280х692]
бітрейт: 4044 кб/с

Аудіо:
мова: українська
переклад: професійний дубльований | ААА-sound
кодек: 5.1
бітрейт: 384 кб/с
Інформація про дубляж
Режисер: Олександ Єфімов
Ролі дублювали: Андрій Федінчик, Юлія Перенчук, Дмитро Завадський, Катерина Буцька, Олександр Погребняк, Олена Узлюк, Андрій Альохін, Юрій Ребрик, Ярослав Чорненький, Павло Скороходько, Анатолій Зіновенко, Ірина Грей, Єгор Пчьолкін, Антоніна Кружняк та інші.
Фільм дубльовано студією AAA-Sound у 2017 році на замовлення компанії Вольга Україна
Збережено оригінальні розділи
Info
Код:
Format                      :
Format version              : Version 4 / Version 2
File size                   : 2.65 GiB
Duration                    : 1 h 25 min
Overall bit rate            : 4 430 kb/s

Video
ID                          : 1
Format                      : AVC
Format/Info                 : Advanced Video Codec
Format profile              : [email protected]
Format settings, CABAC      : No
Format settings, ReFrames   : 2 frames
Codec ID                    : V_MPEG4/ISO/AVC
Duration                    : 1 h 25 min
Bit rate                    : 4 044 kb/s
Width                       : 960 pixels
Height                      : 692 pixels
Display aspect ratio        : 1.85:1
Frame rate mode             : Constant
Frame rate                  : 25.000 FPS
Color space                 : YUV
Chroma subsampling          : 4:2:0
Bit depth                   : 8 bits
Scan type                   : Progressive
Bits/(Pixel*Frame)          : 0.243
Stream size                 : 2.42 GiB (91%)
Title                       : SuperАЛІБІ / Alibi.com (2017) 720p [iTunes]
Language                    : English
Default                     : Yes
Forced                      : No
Color range                 : Limited
Color primaries             : BT.709
Transfer characteristics    : BT.709
Matrix coefficients         : BT.709

Audio
ID                          : 2
Format                      : AC-3
Format/Info                 : Audio Coding 3
Format settings, Endianness : Big
Codec ID                    : A_AC3
Duration                    : 1 h 25 min
Bit rate mode               : Constant
Bit rate                    : 384 kb/s
Channel(s)                  : 6 channels
Channel positions           : Front: L C R, Side: L R, LFE
Sampling rate               : 48.0 kHz
Frame rate                  : 31.250 FPS (1536 spf)
Bit depth                   : 16 bits
Compression mode            : Lossy
Stream size                 : 235 MiB (9%)
Title                       : Dub [iTunes, AAA-sound]
Language                    : Ukrainian
Service kind                : Complete Main
Default                     : Yes
Forced                      : No

Menu
00:00:00.000                : en:Chapter 1
00:06:10.680                : en:Chapter 2
00:11:29.320                : en:Chapter 3
00:16:51.800                : en:Chapter 4
00:23:38.760                : en:Chapter 5
00:29:31.200                : en:Chapter 6
00:35:36.280                : en:Chapter 7
00:41:25.640                : en:Chapter 8
00:47:41.000                : en:Chapter 9
00:52:48.480                : en:Chapter 10
00:59:43.080                : en:Chapter 11
01:05:06.480                : en:Chapter 12
01:10:18.640                : en:Chapter 13
01:15:43.120                : en:Chapter 14


Джерело: &


 Трекер:    Зареєстрований   

Завантажити / скачати фільм українською



відео для новачків



 Зареєстрований:   2017-04-06 09:34
 Розмір:   2.65 GB 
 Оцінка фільму:   6.5/10 (Голосів: 35)
   
Інші релізи
   SuperАЛІБІ / Alibi.com (2017) AVC Ukr/Fre 11FrYkT  38 / 1   2.39 GB   2017-08-14 18:41 
   SuperАЛІБІ / Alibi.com (2017) AngryBirdsUA  21 / 0   1.45 GB   2017-04-06 21:08 
   SuperАЛІБІ / Alibi.com (2017) 1080p Electroz  8 / 0   3.3 GB   2017-04-06 00:08 
Wowatorrent 
Новенький


З нами з: 24.03.16
Востаннє: 21.08.17
Повідомлень: 6

2017-04-06 14:05  
Чого такий дивний розмір кадру?
Anonymous 







2017-04-06 14:06  
Wowatorrent, то через анаморфний розмір пікселя, це оригінальне відео з російського айтюнсу.
Alex_Shumway 
Новенький


З нами з: 10.07.16
Востаннє: 20.08.17
Повідомлень: 10

2017-04-22 00:24  
по темі: під час перегляду мій сміх був схожий на сміх Луіса з "Помсти придурків"
nickosat 
Новенький


З нами з: 23.11.14
Востаннє: 20.08.17
Повідомлень: 5

2017-04-24 21:01  
Як для "французького кіно" - то нормально. Якщо брати в цілому - гі.няний, на 3-
0mage0 
Свій


З нами з: 06.10.15
Востаннє: 20.08.17
Повідомлень: 51

2017-05-08 20:15  
Фільм дуже смішний. У перекладі багато суржа Sad (1)
Ваш часовий пояс: GMT + 2 Години

Нова тема   Відповісти