SuperАЛІБІ / Alibi.com (2017) 720p Ukr/Fre | Sub Fre

Нові коментарі

Нова тема   Відповісти
Автор Повідомлення
Anonymous 







2017-04-06 08:54  
SuperАЛІБІ / Alibi.com (2017) 720p Ukr/Fre | Sub Fre

SuperАЛІБІ / Alibi.com (2017) 720p Ukr/Fre | Sub Fre

Жанр: комедія
Країна: Франція



Кінокомпанія: Fechner Films, TF1 Droits Audiovisuels, StudioCanal, TF1 Films Production, CN5 Productions, Palatine Étoile 14, Canal+, Ciné+, TF1, TMC
Режисер: Філіпп Лашо / Philippe Lacheau
Актори: Філіпп Лашо / Philippe Lacheau, Елоді Фонтан /Élodie Fontan, Жюльєн Арруті / Julien Arruti, Тарек Будалі / Tarek Boudali, Дідьє Бурдон / Didier Bourdon Didier Bourdon, Наталі Бай / Nathalie Baye, Меді Садун / Medi Sadoun, Венсан Дезанья / Vincent Desagnat, Філіпп Дюкен / Philippe Duquesne, Кад Мерад / Kad Merad, Самі Насері / Samy Naceri та інші

Сюжет:
Ви хочете відпочити від рутинного життя, але не можете придумати відмазку? Ви затятий футбольний фанат, але сім'я не поділяє Ваших захоплень і не дає Вам сходити на матч? Або у Вас інтрижка з молодою дівчиною, і потрібне надійне прикриття? Тоді звертайтеся в новий проект Грега alibi.com. Креативна команда допоможе Вам створити прекрасне алібі на будь-який випадок життя. Як же здивувався Грег, коли в батькові своєї дівчини він впізнав нового клієнта. Хлопець разом зі своїми друзями повинен вигадувати все нові і нові хитрощі, щоб врятувати брехливого батька від гніву сімейства.
Офіційний український трейлер:

Вікова категорія: 16+
Тривалість: 01:29:10
Якість: 720p
Відео:
кодек:
розмір кадру: 1280x690
бітрейт: 6049 кб/с [crf=16.2]

Аудіо # 1:
мова: українська
переклад: професійний дубльований | ААА-sound
кодек: 5.1
бітрейт: 384 кб/с
Інформація про дубляж
Режисер: Олександ Єфімов
Ролі дублювали: Андрій Федінчик, Юлія Перенчук, Дмитро Завадський, Катерина Буцька, Олександр Погребняк, Олена Узлюк, Андрій Альохін, Юрій Ребрик, Ярослав Чорненький, Павло Скороходько, Анатолій Зіновенко, Ірина Грей, Єгор Пчьолкін, Антоніна Кружняк та інші.
Фільм дубльовано студією AAA-Sound у 2017 році на замовлення компанії Вольга Україна
Аудіо # 2:
мова: французька
переклад: оригінал
кодек: 5.1
бітрейт: 448 кб/с

Субтитри:
мова: французька
тип: програмні (м'які)
формат: *.srt

Збережено оригінальні розділи, як на Blu-ray
Info та log
Код:
Complete name               : Alibi.com (2017) [Ukr,Fre sub.Fre] 720p [Hurtom].
Format                      :
Format version              : Version 4 / Version 2
File size                   : 4.29 GiB
Duration                    : 1 h 29 min
Overall bit rate            : 6 884 kb/s
Movie name                  : SuperАЛІБІ / Alibi.com (2017) [Ukr,Fre sub.Fre] 720p [Hurtom]
Released date               : 2017
Cover                       : Yes
Attachments                 : cover.jpg

Video
ID                          : 1
Format                      : AVC
Format/Info                 : Advanced Video Codec
Format profile              : High@L4.1
Format settings, CABAC      : Yes
Format settings, RefFrames  : 9 frames
Codec ID                    : V_MPEG4/ISO/AVC
Duration                    : 1 h 29 min
Bit rate                    : 6 049 kb/s
Width                       : 1 280 pixels
Height                      : 690 pixels
Display aspect ratio        : 1.85:1
Frame rate mode             : Constant
Frame rate                  : 24.000 FPS
Color space                 : YUV
Chroma subsampling          : 4:2:0
Bit depth                   : 8 bits
Scan type                   : Progressive
Bits/(Pixel*Frame)          : 0.285
Stream size                 : 3.77 GiB (88%)
Title                       : SuperАЛІБІ / Alibi.com (2017) 720p [Rutracker-LION1234]
Writing library             : core 150 r2833 df79067
Encoding settings           : cabac=1 / ref=9 / deblock=1:-3:-3 / analyse=0x3:0x113 / me=umh / subme=10 / psy=1 / psy_rd=0.95:0.00 / mixed_ref=1 / me_range=24 / chroma_me=1 / trellis=2 / 8x8dct=1 / cqm=0 / deadzone=21,11 / fast_pskip=1 / chroma_qp_offset=-2 / threads=6 / lookahead_threads=1 / sliced_threads=0 / nr=0 / decimate=0 / interlaced=0 / bluray_compat=0 / constrained_intra=0 / bframes=9 / b_pyramid=2 / b_adapt=2 / b_bias=0 / direct=1 / weightb=1 / open_gop=0 / weightp=2 / keyint=250 / keyint_min=23 / scenecut=40 / intra_refresh=0 / rc_lookahead=60 / rc=crf / mbtree=0 / crf=16.2 / qcomp=0.62 / qpmin=0 / qpmax=69 / qpstep=4 / vbv_maxrate=62500 / vbv_bufsize=78125 / crf_max=0.0 / nal_hrd=none / filler=0 / ip_ratio=1.40 / pb_ratio=1.30 / aq=2:0.72
Language                    : French
Default                     : Yes
Forced                      : No

Audio #1
ID                          : 2
Format                      : AC-3
Format/Info                 : Audio Coding 3
Format settings, Endianness : Big
Codec ID                    : A_AC3
Duration                    : 1 h 29 min
Bit rate mode               : Constant
Bit rate                    : 384 kb/s
Channel(s)                  : 6 channels
Channel positions           : Front: L C R, Side: L R, LFE
Sampling rate               : 48.0 kHz
Frame rate                  : 31.250 FPS (1536 SPF)
Bit depth                   : 16 bits
Compression mode            : Lossy
Stream size                 : 245 MiB (6%)
Title                       : Dub [iTunes, AAA-sound] 5.1 384 Kbps
Language                    : Ukrainian
Service kind                : Complete Main
Default                     : Yes
Forced                      : Yes

Audio #2
ID                          : 3
Format                      : AC-3
Format/Info                 : Audio Coding 3
Format settings, Endianness : Big
Codec ID                    : A_AC3
Duration                    : 1 h 29 min
Bit rate mode               : Constant
Bit rate                    : 448 kb/s
Channel(s)                  : 6 channels
Channel positions           : Front: L C R, Side: L R, LFE
Sampling rate               : 48.0 kHz
Frame rate                  : 31.250 FPS (1536 SPF)
Bit depth                   : 16 bits
Compression mode            : Lossy
Stream size                 : 286 MiB (7%)
Title                       : Original, 5.1 448 Kbps
Language                    : French
Service kind                : Complete Main
Default                     : No
Forced                      : No

Text
ID                          : 4
Format                      : UTF-8
Codec ID                    : S_TEXT/UTF8
Codec ID/Info               : UTF-8 Plain Text
Duration                    : 1 h 28 min
Bit rate                    : 63 b/s
Count of elements           : 1381
Stream size                 : 40.9 KiB (0%)
Title                       : French full
Language                    : French
Default                     : No
Forced                      : No

Menu
00:00:00.000                : en:00:00:00.000
00:07:35.333                : en:00:07:35.333
00:15:44.208                : en:00:15:44.208
00:20:42.583                : en:00:20:42.583
00:28:32.500                : en:00:28:32.500
00:36:59.292                : en:00:36:59.292
00:43:03.208                : en:00:43:03.208
00:53:31.833                : en:00:53:31.833
01:00:57.458                : en:01:00:57.458
01:07:43.250                : en:01:07:43.250
01:16:11.167                : en:01:16:11.167
01:21:13.708                : en:01:21:13.708

Код:
[info]: frame I:1392 Avg QP:15.11 size:142330
[info]: frame P:26175 Avg QP:16.90 size: 65036
[info]: frame B:100843 Avg QP:18.93 size: 21275
[info]: consecutive B-frames: 1.9% 1.7% 4.5% 20.1% 19.5% 41.2% 6.1% 3.3% 0.8% 1.0%


Джерело: &


 Трекер:    Зареєстрований   

Завантажити / скачати фільм українською



відео для новачків



 Зареєстрований:   2017-08-22 11:45
 Розмір:   4.29 GB 
 Оцінка фільму:   7.2/10 (Голосів: 55)
   
Інші релізи
   SuperАЛІБІ / Alibi.com (2017) AVC Ukr/Fre 11FrYkT  44 / 1   2.39 GB   2017-08-14 18:41 
   SuperАЛІБІ / Alibi.com (2017) AngryBirdsUA  13 / 0   1.45 GB   2017-04-06 21:08 
   SuperАЛІБІ / Alibi.com (2017) 1080p Electroz  10 / 0   3.3 GB   2017-04-06 00:08 
Alex_Shumway 
Новенький


З нами з: 10.07.16
Востаннє: 21.10.17
Повідомлень: 13

2017-04-22 00:24  
по темі: під час перегляду мій сміх був схожий на сміх Луіса з "Помсти придурків"
nickosat 
Новенький


З нами з: 23.11.14
Востаннє: 21.10.17
Повідомлень: 5

2017-04-24 21:01  
Як для "французького кіно" - то нормально. Якщо брати в цілому - гі.няний, на 3-
0mage0 
Свій


З нами з: 06.10.15
Востаннє: 23.10.17
Повідомлень: 95

2017-05-08 20:15  
Фільм дуже смішний. У перекладі багато суржа Sad (1)
Anonymous 







2017-08-22 11:49  
Реліз оновлено до 'а
Uberwinder 
Свій


З нами з: 18.11.16
Востаннє: 23.10.17
Повідомлень: 139

2017-08-24 11:30  
Хоча і шаблонний, але у цілому досить приємний фільм.
ika1963 
Відео Гуртом - дизайнер
Відео Гуртом - дизайнер


З нами з: 13.05.10
Востаннє: 23.10.17
Повідомлень: 232

2017-09-08 02:47  
Яка ж то дурня!.. Не дивіться це лайно.
kronn 
Новенький


З нами з: 01.02.15
Востаннє: 05.10.17
Повідомлень: 2

2017-09-23 00:27  
Класична комедія ситуацій. Французи у цьому розуміються. Гротесково (це ж комедія, а не документальний фільм).
Happy Добре пореготав, але не варто шукати у фільмі, щось надзвичайне.

Ваш часовий пояс: GMT + 2 Години

Нова тема   Відповісти