Червоні браслети (Сезон 1) / Red Band Society (Season 1) (2014-2015) 720p Ukr/Eng

Нові коментарі

Нова тема   Відповісти
Автор Повідомлення
Anonymous 







2017-04-04 19:06  

1-й сезон: | 720p

Червоні браслети (Сезон 1) / Red Band Society (Season 1) (2014-2015) 720p Ukr/Eng

Червоні браслети (Сезон 1) / Red Band Society (Season 1) (2014-2015) 720p Ukr/Eng


Жанр: драма, комедія
Країна: США



Кінокомпанія: Filmax International, Amblin Television, ABC Studios
Режисер: Альфонсо Гомез-Рейон
Актори: Октавія Спенсер, Дейв Енейбл, Браян Бредлі, Сіера Браво, Гріфін Глюк, Зоі Левін, Ребека Рітенхаус, Нолан Сотілло, Чарлі Роу

Сюжет:
У центрі сюжету життя підлітків, які з тих чи інших причин на довгий час стали пацієнтами лікарні. Хтось із них має проблеми з серцем, комусь лікарі поставили страшний діагноз «рак», а хтось і зовсім вже протягом довгого часу знаходиться в глибокій комі, і не відомо чи вийде з неї взагалі. Всі вони абсолютно не схожі один на одного, і ніколи не були знайомі, проте хвороби і спільний дім, яким для них стала медустанова, об'єднують героїв. Разом герої створюють власне братство під назвою «Червоні браслети», яке допомагає їм впоратися з усіма труднощами.


Тривалість: 1 серія: ~41:00 (цілком серій: 13)
Перелік серій
01. Pilot
02. Sole Searching
03. Liar, Liar Pants on Fire
04. There's No Place Like Homecoming
05. So Tell Me What You Want What You Really Really Want
06. Ergo Ego
07. Know Thyself
08. Get Outta My Dreams, Get Into My Car
09. How Did We Get Here?
10. What I Did for Love
11. The Guilted Age
12. We'll Always Have Paris
13. Waiting for Superman
Якість:
Відео:
кодек:
розмір кадру: 1280 х 720
бітрейт: ~4300 кб/с

Аудіо # 1:
мова: українська
переклад: багатоголосий закадровий
кодек: 2.0
бітрейт: 192 кб/с

Аудіо # 2:
мова: англійська
переклад: оригінал
кодек: 5.1
бітрейт: 384 кб/с

Джерело озвучення:
Info
General
Unique ID : 217683408348136318849986222435332719203 (0xA3C44CA8FA4A422A9B11A049FCEB0263)
Complete name : E:\_inbox\torrents\Support\Red Band Society (Season 1) [, 720p, Ukr, Eng]\01. Pilot.
Format :
Format version : Version 4 / Version 2
File size : 1.48 GiB
Duration : 42 min 49 s
Overall bit rate : 4 952 kb/s
Encoded date : UTC 2017-03-12 10:11:01
Writing application : v9.9.0 ('Pick Up') 64bit
Writing library : libebml v1.3.4 + v1.4.5

Video
ID : 1
Format : AVC
Format/Info : Advanced Video Codec
Format profile : [email protected]
Format settings, CABAC : No
Format settings, ReFrames : 2 frames
Codec ID : V_MPEG4/ISO/AVC
Duration : 42 min 49 s
Bit rate : 4 373 kb/s
Width : 1 280 pixels
Height : 720 pixels
Display aspect ratio : 16:9
Frame rate mode : Constant
Frame rate : 25.000 FPS
Color space : YUV
Chroma subsampling : 4:2:0
Bit depth : 8 bits
Scan type : Progressive
Bits/(Pixel*Frame) : 0.190
Stream size : 1.31 GiB (88%)
Language : English
Default : Yes
Forced : No
Color range : Limited
Color primaries : BT.709
Transfer characteristics : BT.709
Matrix coefficients : BT.709

Audio #1
ID : 2
Format : AC-3
Format/Info : Audio Coding 3
Mode extension : CM (complete main)
Format settings, Endianness : Big
Codec ID : A_AC3
Duration : 42 min 49 s
Bit rate mode : Constant
Bit rate : 192 kb/s
Channel(s) : 2 channels
Channel positions : Front: L R
Sampling rate : 48.0 kHz
Frame rate : 31.250 FPS (1536 spf)
Bit depth : 16 bits
Compression mode : Lossy
Stream size : 58.8 MiB (4%)
Title : ТЕТ
Language : Ukrainian
Default : Yes
Forced : No

Audio #2
ID : 3
Format : AC-3
Format/Info : Audio Coding 3
Mode extension : CM (complete main)
Format settings, Endianness : Big
Codec ID : A_AC3
Duration : 42 min 49 s
Bit rate mode : Constant
Bit rate : 384 kb/s
Channel(s) : 6 channels
Channel positions : Front: L C R, Side: L R, LFE
Sampling rate : 48.0 kHz
Frame rate : 31.250 FPS (1536 spf)
Bit depth : 16 bits
Compression mode : Lossy
Stream size : 118 MiB (8%)
Language : English
Default : No
Forced : No
Скріншоти
Джерело: &
Особиста оцінка: 9 - мені сподобалося


Бронзовий реліз (на рейтинг впливає 75% завантаженого)
 Трекер:    Зареєстрований   

Завантажити / скачати серіал українською



відео для новачків



 Зареєстрований:   2017-04-04 19:06
 Розмір:   18.51 GB 
 Оцінка серіалу:   4.8/10 (Голосів: 18)
   
gefarr_ 
Новенький


З нами з: 29.09.19
Востаннє: 29.09.19
Повідомлень: 1

2019-09-29 16:20  
Люди, станьте на роздачу, буду вдячний)

Додано через 30 хвилин 13 секунд:

всім дякую, качаю з якогось онлайн плеєра)
там лінки

посилання видалено, п.2.10

Ваш часовий пояс: GMT + 2 Години

Нова тема   Відповісти