Сезони / Seasons / Les saisons (2015) Remux 1080p Ukr/Fre | Sub Ukr/Fre

Нові коментарі

Нова тема   Відповісти
Автор Повідомлення
AngryBirdsUA 
Свій


З нами з: 24.02.10
Востаннє: 21.10.17
Повідомлень: 3037

2017-04-02 21:32  

Сезони / Seasons / Les saisons (2015) Remux 1080p Ukr/Fre | Sub Ukr/Fre

Сезони / Seasons / Les saisons (2015) Remux 1080p Ukr/Fre | Sub Ukr/Fre


Жанр: документальний
Країна: Франція, Німеччина



Кінокомпанія: France 2 Cinéma, Galatée Films, Pandora Filmproduktion
Режисер: Жак Перрен, Жак Клюзо
Сюжет:
З-під небес, де ширяють птахи, і з глибин океану, де мешкають кити і гігантські рогаті скати, майстри документалістики Жак Перрен і Жак Клюзо вийшли на берег, щоб представити свій новий фільм. Вони захоплюють глядача в подорож у часі, в європейські ландшафти, якими ті були 20 000 років тому, коли в останній Льодовиковий період людина заселяла їх пліч-о-пліч з дикими звірами. Льодовиковий період, зима, що тривала 80 000 років, завершилися дуже цікавим етапом, коли відносно швидко весь континент покрився безмірним і безкрайнім доісторичним лісом. Нова конфігурація планет привела до появи пір року, ландшафт зазнав метаморфози, розвинулися флора і фауна.


Тривалість: 01:36:02
Якість: Remux
Відео:
кодек:
розмір кадру: 1920x1080
бітрейт: 31875 кб/с

Аудіо # 1:
мова: українська
переклад: одноголосий закадровий | Logos71
кодек: -HD MA 7.1
бітрейт: 4712 кб/с

Аудіо # 2:
мова: французька
переклад: оригінал
кодек: Dolby Atmos 7.1
бітрейт: 4712 кб/с

Субтитри:
мова: українська
тип: програмні (м'які)
формат: *.srt

Субтитри:
мова: французька
тип: програмні (м'які)
формат: *.srt
Info
General
Unique ID : 241564980030540432330328724762170194024 (0xB5BBB90D10BE552E9B04002336EF7868)
Complete name : D:\Les saisons (2015) Remux 1080p [Ukr.Fre] [sub Ukr.Fre] [Hurtom].
Format :
Format version : Version 4 / Version 2
File size : 27.7 GiB
Duration : 1 h 36 min
Overall bit rate mode : Variable
Overall bit rate : 41.3 Mb/s
Encoded date : UTC 2017-04-07 06:30:00
Writing application : mkvmerge v7.9.0 ('Birds') 64bit
Writing library : libebml v1.3.1 + libmatroska v1.4.2
Attachments : poster.jpg

Video
ID : 1
Format : AVC
Format/Info : Advanced Video Codec
Format profile : [email protected]
Format settings, CABAC : Yes
Format settings, ReFrames : 3 frames
Codec ID : V_MPEG4/ISO/AVC
Duration : 1 h 36 min
Bit rate mode : Variable
Bit rate : 32.0 Mb/s
Maximum bit rate : 35.0 Mb/s
Width : 1 920 pixels
Height : 1 080 pixels
Display aspect ratio : 16:9
Frame rate mode : Constant
Frame rate : 24.000 FPS
Color space : YUV
Chroma subsampling : 4:2:0
Bit depth : 8 bits
Scan type : Progressive
Bits/(Pixel*Frame) : 0.643
Stream size : 21.4 GiB (77%)
Writing library : core 146 r2538 121396c
Encoding settings : cabac=1 / ref=4 / deblock=1:-1:-1 / analyse=0x3:0x133 / me=umh / subme=10 / psy=1 / psy_rd=1.00:0.15 / mixed_ref=1 / me_range=24 / chroma_me=1 / trellis=2 / 8x8dct=1 / cqm=0 / deadzone=21,11 / fast_pskip=1 / chroma_qp_offset=-3 / threads=36 / lookahead_threads=3 / sliced_threads=0 / slices=4 / nr=0 / decimate=1 / interlaced=0 / bluray_compat=1 / constrained_intra=0 / bframes=3 / b_pyramid=1 / b_adapt=2 / b_bias=0 / direct=3 / weightb=1 / open_gop=1 / weightp=1 / keyint=24 / keyint_min=1 / scenecut=40 / intra_refresh=0 / rc_lookahead=24 / rc=2pass / mbtree=1 / bitrate=32000 / ratetol=1.0 / qcomp=0.60 / qpmin=0 / qpmax=69 / qpstep=4 / cplxblur=20.0 / qblur=0.5 / vbv_maxrate=35000 / vbv_bufsize=30000 / nal_hrd=vbr / filler=0 / ip_ratio=1.40 / aq=1:1.00
Default : Yes
Forced : No
Color range : Limited
Color primaries : BT.709
Transfer characteristics : BT.709
Matrix coefficients : BT.709

Audio #1
ID : 2
Format :
Format/Info : Digital Theater Systems
Format profile : MA / Core
Mode : 16
Format settings, Endianness : Big
Codec ID : A_DTS
Duration : 1 h 36 min
Bit rate mode : Variable / Constant
Bit rate : 4 637 kb/s / 1 509 kb/s
Channel(s) : 8 channels / 6 channels
Channel positions : Front: L C R, Side: L R, Back: L R, LFE / Front: L C R, Side: L R, LFE
Sampling rate : 48.0 kHz
Frame rate : 93.750 FPS (512 spf)
Bit depth : 24 bits
Compression mode : Lossless / Lossy
Stream size : 3.11 GiB (11%)
Language : Ukrainian
Default : Yes
Forced : No

Audio #2
ID : 3
Format : TrueHD
Format profile : TrueHD+Atmos / TrueHD
Codec ID : A_TRUEHD
Duration : 1 h 36 min
Bit rate mode : Variable
Bit rate : 4 712 kb/s
Maximum bit rate : 7 527 kb/s
Channel(s) : Object Based / 8 channels
Channel positions : Object Based / Front: L C R, Side: L R, Back: L R, LFE
Sampling rate : / 48.0 kHz
Frame rate : 1 200.000 FPS (40 spf)
Compression mode : Lossless
Stream size : 3.16 GiB (11%)
Language : French
Default : No
Forced : No

Text #1
ID : 4
Format : UTF-8
Codec ID : S_TEXT/UTF8
Codec ID/Info : UTF-8 Plain Text
Duration : 1 h 34 min
Bit rate : 9 b/s
Count of elements : 110
Stream size : 6.88 KiB (0%)
Language : Ukrainian
Default : Yes
Forced : No

Text #2
ID : 5
Format : UTF-8
Codec ID : S_TEXT/UTF8
Codec ID/Info : UTF-8 Plain Text
Duration : 1 h 35 min
Bit rate : 14 b/s
Count of elements : 418
Stream size : 10.3 KiB (0%)
Language : French
Default : No
Forced : No


Над релізом працювали:
Logos71 - озвучення
Hanway - монтаж звуку

Джерело: &
Особиста оцінка: 10 - без зайвих вагань рекомендую всім!


Авторський реліз (завантажувати можна без реєстрації)
 Трекер:    Зареєстрований   

Завантажити / скачати фільм українською



відео для новачків



 Зареєстрований:   2017-04-07 11:25
 Розмір:   27.7 GB 
 Оцінка фільму:   6.5/10 (Голосів: 26)
   
AngryBirdsUA 
Свій


З нами з: 24.02.10
Востаннє: 21.10.17
Повідомлень: 3037

2017-04-02 21:33  
Буде ще аві та 720p.
7xcsg 
Новенький


З нами з: 30.04.16
Востаннє: 17.10.17
Повідомлень: 4

2017-04-04 11:55  
AngryBirdsUA
Коли приблизно очікувати релізи?

artropant 
Новенький


З нами з: 05.02.17
Востаннє: 10.05.17
Повідомлень: 19

2017-04-05 00:05  
Почекаємо. Wink (2)
bot 
робот


З нами з: 30.09.07
Востаннє: 26.05.05
Повідомлень: 17723

2017-04-07 11:24  
Тему перенесено з Анонси релізів до форуму Документальні фільми в HD


AngryBirdsUA

EvGaS 
Відео Гуртом - субтитрування
Відео Гуртом - субтитрування


З нами з: 27.02.12
Востаннє: 21.10.17
Повідомлень: 4101

2017-04-07 12:08  
AngryBirdsUA написано:
Les saisons

Я б трактував назву як «Пори року».
Бо сезони — запозичене.

AngryBirdsUA 
Свій


З нами з: 24.02.10
Востаннє: 21.10.17
Повідомлень: 3037

2017-04-08 13:29  
EvGaS написано:

Я б трактував назву як «Пори року».
Бо сезони — запозичене.

Озвучував не я, тому питання не до мене.
Та й реліз заради назви уже ніхто оновлювати не буде.

Ваш часовий пояс: GMT + 2 Години

Нова тема   Відповісти