Пекло / Brimstone (2016) 720p Ukr/Eng | Sub Eng

Нові коментарі

Нова тема   Відповісти
Автор Повідомлення
Anonymous 







2017-04-02 02:33  
Пекло / Brimstone (2016) 720p Ukr/Eng | Sub Eng

Пекло / Brimstone (2016) 720p Ukr/Eng | Sub Eng


Жанр: вестерн, трилер, детектив
Країна: Нідерланди, Франція, Німеччина, Бельгія, Швеція, Велика Британія



Кінокомпанія: 279 Entertainment, Backup Media, Film i Väst, FilmWave, Illusion Film & Television, Prime Time, X-Filme Creative Pool
Режисер: Мартін Кулховен / Martin Koolhoven
Актори: Дакота Фаннінг / Dakota Fanning, Кіт Гарінгтон / Kit Harington, Керіс ван Гутен / Carice van Houten, Гай Пірс / Guy Pearce, Пол Андерсон / Paul Anderson, Емілія Джонс / Emilia Jones, Карла Юрі / Carla Juri, Джек Рот / Jack Roth, Вільям Г'юстон / William Houston, Наомі Баттрік / Naomi Battrick та інші

Сюжет:
Фільм розповідає про дівчину, яку звуть Ліз. Вона хоче піти від свого темного минулого і ховається від переслідування диявольського Проповідника. Дівчина живе на відстані від людей, серед пісків Америки. Ліз – та, що вижила, жінка великої сили, неймовірно хоробра і добра. Вона та її дочка точно заслуговують на краще життя, ніж мають. Треба тільки розібратися з Проповідником...
Офіційний український трейлер:

Рейтинг MPAA: R - дітям до 17 років обов'язкова присутність дорослого
Вікова категорія: 18+

Тривалість: 02:28:31
Якість: 720p
Відео:
кодек:
розмір кадру: 1280x536
бітрейт: 5061 кб/с [crf=17.5]

Аудіо # 1:
мова: українська
переклад: багатоголосий закадровий | ААА-sound
кодек: 5.1
бітрейт: 384 кб/с
Інформація про озвучення
Режисер: Олександр Єфімов
Ролі озвучили: Юлія Перенчук, Андрій Альохін, Ірина Грей, Анатолій Зіновенко та інші

Фільм озвучено студією ААА-sound у 2016 році на замовлення компанії "Вольга-Україна"
Аудіо # 2:
мова: англійська
переклад: оригінал
кодек: 5.1
бітрейт: 640 кб/с

Субтитри # 1-2:
мова: англійська (форсовані, повні)
тип: програмні (м'які)
формат: *.srt

Збережено оригінальні розділи, як на Blu-ray
Info
Код:
Format                      :
Format version              : Version 4 / Version 2
File size                   : 6.32 GiB
Duration                    : 2 h 28 min
Overall bit rate            : 6 086 kb/s

Video
ID                          : 1
Format                      : AVC
Format/Info                 : Advanced Video Codec
Format profile              : [email protected]
Format settings, CABAC      : Yes
Format settings, ReFrames   : 9 frames
Codec ID                    : V_MPEG4/ISO/AVC
Duration                    : 2 h 28 min
Bit rate                    : 5 061 kb/s
Width                       : 1 280 pixels
Height                      : 536 pixels
Display aspect ratio        : 2.40:1
Frame rate mode             : Constant
Frame rate                  : 23.976 (24000/1001) FPS
Color space                 : YUV
Chroma subsampling          : 4:2:0
Bit depth                   : 8 bits
Scan type                   : Progressive
Bits/(Pixel*Frame)          : 0.308
Stream size                 : 5.25 GiB (83%)
Title                       : Пекло / Brimstone (2016) 720p [ExKinoRay]
Writing library             : core 149 r2771+45 509cceb 7mod [[email protected] X86_64]
Encoding settings           : cabac=1 / ref=9 / deblock=1:-3:-3 / analyse=0x3:0x113 / me=umh / subme=10 / psy=1 / fade_compensate=0.00 / psy_rd=1.00:0.05 / mixed_ref=1 / me_range=32 / chroma_me=1 / trellis=2 / 8x8dct=1 / cqm=0 / deadzone=21,11 / fast_pskip=0 / chroma_qp_offset=-2 / threads=12 / lookahead_threads=2 / sliced_threads=0 / nr=0 / decimate=1 / interlaced=0 / bluray_compat=0 / constrained_intra=0 / fgo=0 / bframes=8 / b_pyramid=2 / b_adapt=2 / b_bias=0 / direct=3 / weightb=1 / open_gop=0 / weightp=2 / keyint=250 / keyint_min=23 / scenecut=40 / intra_refresh=0 / rc_lookahead=40 / rc=crf / mbtree=0 / crf=17.5000 / qcomp=0.60 / qpmin=0:0:0 / qpmax=69:69:69 / qpstep=4 / vbv_maxrate=30000 / vbv_bufsize=30000 / crf_max=0.0 / nal_hrd=none / filler=0 / ip_ratio=1.40 / pb_ratio=1.30 / aq=3:1.00 / aq-sensitivity=10.00 / aq-factor=1.00:1.00:1.00 / aq2=0 / aq3=0
Language                    : English
Default                     : Yes
Forced                      : No
Color range                 : Limited
Matrix coefficients         : BT.709

Audio #1
ID                          : 2
Format                      : AC-3
Format/Info                 : Audio Coding 3
Format settings, Endianness : Big
Codec ID                    : A_AC3
Duration                    : 2 h 28 min
Bit rate mode               : Constant
Bit rate                    : 384 kb/s
Channel(s)                  : 6 channels
Channel positions           : Front: L C R, Side: L R, LFE
Sampling rate               : 48.0 kHz
Frame rate                  : 31.250 FPS (1536 spf)
Bit depth                   : 16 bits
Compression mode            : Lossy
Stream size                 : 408 MiB (6%)
Title                       : MVO [ААА-sound, iTunes] 5.1 384 Kbps
Language                    : Ukrainian
Service kind                : Complete Main
Default                     : Yes
Forced                      : Yes

Audio #2
ID                          : 3
Format                      : AC-3
Format/Info                 : Audio Coding 3
Format settings, Endianness : Big
Codec ID                    : A_AC3
Duration                    : 2 h 28 min
Bit rate mode               : Constant
Bit rate                    : 640 kb/s
Channel(s)                  : 6 channels
Channel positions           : Front: L C R, Side: L R, LFE
Sampling rate               : 48.0 kHz
Frame rate                  : 31.250 FPS (1536 spf)
Bit depth                   : 16 bits
Compression mode            : Lossy
Stream size                 : 680 MiB (11%)
Title                       : Original, 5.1 640 Kbps
Language                    : English
Service kind                : Complete Main
Default                     : No
Forced                      : No

Text #1
ID                          : 4
Format                      : UTF-8
Codec ID                    : S_TEXT/UTF8
Codec ID/Info               : UTF-8 Plain Text
Duration                    : 2 h 0 min
Bit rate                    : 0 b/s
Count of elements           : 32
Stream size                 : 836 Bytes (0%)
Title                       : Eng Forced
Language                    : English
Default                     : No
Forced                      : No

Text #2
ID                          : 5
Format                      : UTF-8
Codec ID                    : S_TEXT/UTF8
Codec ID/Info               : UTF-8 Plain Text
Duration                    : 2 h 18 min
Bit rate                    : 27 b/s
Count of elements           : 948
Stream size                 : 28.2 KiB (0%)
Title                       : Eng Full
Language                    : English
Default                     : No
Forced                      : No

Menu
00:00:00.000                : en:00:00:00.000
00:04:29.853                : en:00:04:29.853
00:11:51.920                : en:00:11:51.920
00:19:58.489                : en:00:19:58.489
00:25:06.213                : en:00:25:06.213
00:32:22.190                : en:00:32:22.190
00:42:25.042                : en:00:42:25.042
00:48:21.148                : en:00:48:21.148
00:55:44.341                : en:00:55:44.341
01:01:14.254                : en:01:01:14.254
01:06:42.040                : en:01:06:42.040
01:17:13.963                : en:01:17:13.963
01:24:38.156                : en:01:24:38.156
01:32:47.312                : en:01:32:47.312
01:39:57.241                : en:01:39:57.241
01:49:04.788                : en:01:49:04.788
01:56:10.630                : en:01:56:10.630
02:02:54.867                : en:02:02:54.867
02:13:38.177                : en:02:13:38.177
02:20:17.909                : en:02:20:17.909


Джерело: &


 Трекер:    Зареєстрований   

Завантажити / скачати фільм українською



відео для новачків



 Зареєстрований:   2017-04-02 03:40
 Розмір:   6.32 GB 
 Оцінка фільму:   7.1/10 (Голосів: 45)
   
Інші релізи
   Пекло / Brimstone (2016) Ukr/Eng boroznaya  0 / 0   2.84 GB   2018-02-05 15:00 
   Пекло / Brimstone (2016) Remux 1080p Ukr/Eng | Sub Eng famous37  1 / 0   27.18 GB   2017-04-11 21:04 
   Пекло / Brimstone (2016) 1080p Ukr/Eng | Sub Eng Electroz  4 / 0   12.93 GB   2017-04-05 08:20 
   Пекло / Brimstone (2016) AVC Ukr/Eng | Sub Eng 11FrYkT  7 / 0   2.65 GB   2017-04-02 13:57 
casper101 
VIP


З нами з: 03.12.09
Востаннє: 22.09.20
Повідомлень: 448

2017-06-05 18:32  
а перекладач сказав що не пекло а сірка.
vdmvvv1 
Новенький


З нами з: 13.11.16
Востаннє: 22.09.20
Повідомлень: 17

2019-01-11 00:41  
Фільмець норм
Ваш часовий пояс: GMT + 2 Години

Нова тема   Відповісти