Криза в шістьох сценах (Сезон 1) / Crisis in Six Scenes (Season 1) (2016) 4k 2160p Ukr/Eng

Нові коментарі

Нова тема   Відповісти
Автор Повідомлення
BaibaKoTV 
Свій


З нами з: 01.12.16
Востаннє: 02.12.20
Повідомлень: 70

2017-03-29 20:04  
Криза в шістьох сценах (Сезон 1) / Crisis in Six Scenes (Season 1) (2016) 4k 2160p Ukr/Eng


Криза в шістьох сценах (Сезон 1) / Crisis in Six Scenes (Season 1) (2016) 4k 2160p Ukr/Eng
Подяка за постер - duce-pnf


Жанр: комедія
Країна: США



Кінокомпанія: Amazon Studios
Режисер: Вуді Аллен
Актори: Вуді Аллен, Майлі Сайрус, Елен Мей, Джон Маґаро, Рейчел Броснаген та інші.

Сюжет:
Події серіалу відбуваються в 60-ті роки 20-го століття у неспокійний період для США. Сім'ю середнього класу відвідує несподіваний гість і перевертає їхнє життя догори дриґом.


Тривалість: 1 серія: ~ 25 хв (цілком серій: 6)
Перелік серій
01. Епізод 1
02. Епізод 2
03. Епізод 3
04. Епізод 4
05. Епізод 5
06. Епізод 6
Якість: 4k 2160p
Відео:
кодек:
розмір кадру: 3840 x 2160
бітрейт: 23.4 Мбіт/сек

Аудіо # 1:
мова: українська
переклад: багатоголосий закадровий | BaibaKoTV
кодек: 5.1
бітрейт: 640 кб/с

Перекладено спільнотою "Чарівний Ліхтар"



Аудіо # 2:
мова: англійська
переклад: оригінал
кодек: E- 5.1
бітрейт: 640 кб/с

Субтитри:
мова: українська (назва)
тип: програмні (м'які)
формат: *.
Info
Format :
Format version : Version 4 / Version 2
File size : 4.01 GiB
Duration : 23 min 18 s
Overall bit rate : 24.6 Mb/s
Encoded date : UTC 2017-03-28 21:43:04
Writing application : v9.6.0 ('Slave To Your Mind') 64bit
Writing library : libebml v1.3.4 + v1.4.5

Video
ID : 1
Format : AVC
Format/Info : Advanced Video Codec
Format profile : [email protected]
Format settings, CABAC : Yes
Format settings, ReFrames : 5 frames
Codec ID : V_MPEG4/ISO/AVC
Duration : 23 min 18 s
Bit rate : 23.4 Mb/s
Width : 3 840 pixels
Height : 2 160 pixels
Display aspect ratio : 16:9
Frame rate mode : Constant
Frame rate : 23.976 (24000/1001) FPS
Color space : YUV
Chroma subsampling : 4:2:0
Bit depth : 8 bits
Scan type : Progressive
Bits/(Pixel*Frame) : 0.117
Stream size : 3.80 GiB (95%)
Writing library : core 148 r2638 7599210
Encoding settings : cabac=1 / ref=5 / deblock=1:-1:-1 / analyse=0x3:0x133 / me=umh / subme=10 / psy=1 / psy_rd=1.00:0.15 / mixed_ref=1 / me_range=48 / chroma_me=1 / trellis=2 / 8x8dct=1 / cqm=0 / deadzone=21,11 / fast_pskip=1 / chroma_qp_offset=-3 / threads=12 / lookahead_threads=2 / sliced_threads=0 / nr=0 / decimate=0 / interlaced=0 / bluray_compat=0 / constrained_intra=0 / bframes=8 / b_pyramid=2 / b_adapt=2 / b_bias=0 / direct=3 / weightb=1 / open_gop=0 / weightp=2 / keyint=240 / keyint_min=23 / scenecut=40 / intra_refresh=0 / rc_lookahead=60 / rc=crf / mbtree=1 / crf=17.0 / qcomp=0.70 / qpmin=0 / qpmax=69 / qpstep=4 / vbv_maxrate=300000 / vbv_bufsize=300000 / crf_max=0.0 / nal_hrd=none / filler=0 / ip_ratio=1.40 / aq=1:0.80
Language : English
Default : Yes
Forced : No

Audio #1
ID : 2
Format : AC-3
Format/Info : Audio Coding 3
Mode extension : CM (complete main)
Format settings, Endianness : Big
Codec ID : A_AC3
Duration : 23 min 18 s
Bit rate mode : Constant
Bit rate : 640 kb/s
Channel(s) : 6 channels
Channel positions : Front: L C R, Side: L R, LFE
Sampling rate : 48.0 kHz
Frame rate : 31.250 FPS (1536 spf)
Bit depth : 16 bits
Compression mode : Lossy
Stream size : 107 MiB (3%)
Language : Ukrainian
Default : Yes
Forced : No

Audio #2
ID : 3
Format : E-AC-3
Format/Info : Enhanced Audio Coding 3
Format settings, Endianness : Big
Codec ID : A_EAC3
Duration : 23 min 18 s
Bit rate mode : Constant
Bit rate : 640 kb/s
Channel(s) : 6 channels
Channel positions : Front: L C R, Side: L R, LFE
Sampling rate : 48.0 kHz
Frame rate : 187.500 FPS (256 spf)
Compression mode : Lossy
Stream size : 107 MiB (3%)
Language : English
Default : No
Forced : No

Text
ID : 4
Format :
Codec ID : S_TEXT/
Codec ID/Info : Advanced Sub Station Alpha
Duration : 39 s 290 ms
Bit rate : 290 b/s
Count of elements : 12
Compression mode : Lossless
Stream size : 1.39 KiB (0%)
Language : Ukrainian
Default : Yes
Forced : Yes
Скріншоти







Авторський реліз (завантажувати можна без реєстрації)
 Трекер:    Зареєстрований   

Завантажити / скачати серіал українською



відео для новачків



 Зареєстрований:   2017-03-29 20:04
 Розмір:   26.56 GB 
 Оцінка серіалу:   7.8/10 (Голосів: 5)
   
Patriot_ukr 
VIP


З нами з: 06.04.15
Востаннє: 20.11.20
Повідомлень: 2258

2017-03-29 20:16  
BaibaKoTV написано:
2160p

4K 2160p

Додано через 8 хвилин 15 секунд:

Одного скріншоту замало

[email protected] 
Відео Гуртом - підтримка та поширення
Відео Гуртом - підтримка та поширення


З нами з: 16.06.12
Востаннє: 03.12.20
Повідомлень: 1425

2017-03-30 06:35  
Додайте, будь ласка в кінець шапки, щоб не тікали з роздачі Happy

BB код
Код:
[center][img]https://toloka.to/photos/121229145402136837_f0_0.gif[/img][/center]

Ваш часовий пояс: GMT + 2 Години

Нова тема   Відповісти