Жива / Alive (2016) 720p

Нові коментарі

Нова тема   Відповісти
Автор Повідомлення
Anonymous 







2017-03-28 09:53  
Жива / Alive (2016) 720p

Жива / Alive (2016) 720p
"Одного разу друг зрадить тебе, а ворог,
у вирішальний момент, врятує життя!"
Альтернативні постери








повнорозмірні зображення відкриються по кліку (з натиснутим CTRL чи кліком середньою кнопкою мишки - у новій вкладці)

Жанр: драма, історичний
Країна: Україна



Кінокомпанія: Invert Pictures
Режисер: Тарас Химич
Актори: Ольга Комановська, Ростислав Держипільський, Юрій Хвостенко, Володимир Правосудов, Володимир Климук, Альбіна Сотнікова, Ярослав Кіргач, Олександра Люта та інші.

Сюжет:
В мальовничих Карпатах живе Анна з якою стаються надприродні речі. Дівчина чує голоси і бачить сни, які попереджають про небезпеку і коли згодом вона опиняється в центрі протистояння між українськими повстанцями і силами Радянської імперії її дар передбачення змінює долі багатьох. Фільм знято за реальними подіями.

Офіційний український трейлер:

Вікова категорія: 16+
Тривалість: 01:34:14
Якість: 720p
Відео:
кодек:
розмір кадру: 1366 х 720
бітрейт: 2011 кб/с
примітка: оригінальний відеоряд з каналу Invert Pictures на Vimeo, без лого ТБ-каналів та реклами

Аудіо:
мова: українська, російська
переклад: оригінал
кодек: 2.0
бітрейт: 256 кб/с

Субтитри:
мова: українська (на російську мову)
тип: вбудовані (жорсткі)
Info
Код:
Format                      :
Format version              : Version 4 / Version 2
File size                   : 1.49 GiB
Duration                    : 1 h 34 min
Overall bit rate            : 2 270 kb/s

Video
ID                          : 1
Format                      : AVC
Format/Info                 : Advanced Video Codec
Format profile              : [email protected]
Format settings, CABAC      : Yes
Format settings, ReFrames   : 5 frames
Codec ID                    : V_MPEG4/ISO/AVC
Duration                    : 1 h 34 min
Bit rate                    : 2 011 kb/s
Width                       : 1 366 pixels
Height                      : 720 pixels
Display aspect ratio        : 1.897
Frame rate mode             : Constant
Frame rate                  : 24.000 FPS
Color space                 : YUV
Chroma subsampling          : 4:2:0
Bit depth                   : 8 bits
Scan type                   : Progressive
Bits/(Pixel*Frame)          : 0.085
Stream size                 : 1.32 GiB (89%)
Title                       : Жива / Alive (2016) 720p [Hurtom-igor911]
Writing library             : core 148 r10 90a61ec
Encoding settings           : cabac=1 / ref=5 / deblock=1:0:0 / analyse=0x3:0x113 / me=hex / subme=8 / psy=1 / psy_rd=1.00:0.00 / mixed_ref=1 / me_range=16 / chroma_me=1 / trellis=2 / 8x8dct=1 / cqm=0 / deadzone=21,11 / fast_pskip=1 / chroma_qp_offset=-2 / threads=22 / lookahead_threads=3 / sliced_threads=0 / nr=0 / decimate=1 / interlaced=0 / bluray_compat=0 / stitchable=1 / constrained_intra=0 / bframes=3 / b_pyramid=2 / b_adapt=1 / b_bias=0 / direct=3 / weightb=1 / open_gop=0 / weightp=2 / keyint=infinite / keyint_min=24 / scenecut=40 / intra_refresh=0 / rc_lookahead=50 / rc=crf / mbtree=1 / crf=20.0 / qcomp=0.60 / qpmin=5 / qpmax=69 / qpstep=4 / vbv_maxrate=2750 / vbv_bufsize=7500 / crf_max=0.0 / nal_hrd=none / filler=0 / ip_ratio=1.40 / aq=1:1.00
Language                    : Ukrainian
Default                     : Yes
Forced                      : No
Color range                 : Limited
Color primaries             : BT.709
Transfer characteristics    : BT.709
Matrix coefficients         : BT.709

Audio
ID                          : 2
Format                      :
Format/Info                 : Advanced Audio Codec
Format profile              : LC
Codec ID                    : A_AAC
Duration                    : 1 h 34 min
Bit rate                    : 256 kb/s
Channel(s)                  : 2 channels
Channel positions           : Front: L R
Sampling rate               : 48.0 kHz
Frame rate                  : 46.875 FPS (1024 spf)
Compression mode            : Lossy
Stream size                 : 173 MiB (11%)
Title                       : Original, 2.0 256 Kbps
Language                    : Ukrainian
Default                     : Yes
Forced                      : No
Ще скріншоти


Джерело:

Тарас Химич написано:
Сьогодні ми відкриваємо можливість переглянути наш фільм онлайн на каналі Vimeo на офіційній сторінці INVERT PICTURES безкоштовно протягом місяця:



29.03.2017 торрент оновлено, виправлено уривчасте відтворення відеоряду


Золотий реліз (завантажене не впливає на рейтинг)
 Трекер:    Зареєстрований   

Завантажити / скачати український фільм



відео для новачків



 Зареєстрований:   2017-03-28 23:53
 Розмір:   1.49 GB 
 Оцінка фільму:   7.5/10 (Голосів: 72)
   
Інші релізи
   Проект Лазар / Proyecto Lazaro / Realive (2016) Ukr/Eng drop_plz  8 / 0   1.99 GB   2018-12-05 22:16 
leicheman 
Відео Гуртом - фільмокрай
Відео Гуртом - фільмокрай


З нами з: 03.07.14
Востаннє: 05.03.21
Повідомлень: 5946

2017-03-28 13:28  
Приберіть англійську назву. Вона не потрібна.
Anonymous 







2017-03-28 13:31  
leicheman, вона потрібна, тому залишу.
leicheman 
Відео Гуртом - фільмокрай
Відео Гуртом - фільмокрай


З нами з: 03.07.14
Востаннє: 05.03.21
Повідомлень: 5946

2017-03-28 14:00  
Anonymous написано:
вона потрібна,

1. Це іноземне кіно ?
2. Є версія для англомовних країн?
3. У фільмі є назва англійською?
4. У фільма є англомовне озвучення?

Якщо з цього нічого немає тоді і назва англійською не потрібна.

Anonymous 







2017-03-28 14:10  
leicheman, - це міжнародна назва фільму, з якою він приймав участь у Канському кінофестивалі;
- для англомовних глядачів за два тижні будуть субтитри (відповідь студії в коментарях до фільму на вімео);
- англійська назва, постер з нею є на оф.сайті http://www.zhyvamovie.com/en/ та в базі kino-teatr.ua

Додано через 3 хвилини 47 секунд:

ну і в розділі Українське кіно немає функціоналу "Інші релізи", тому додаткова назва через слеш нікому і нічому не зашкодить.

drop_plz 
Попереджень: 2
Попереджень: 2 


З нами з: 07.02.14
Востаннє: 05.03.21
Повідомлень: 2816

2017-03-28 14:22  
Було б добре в функціонал при створенні релізу добавити поле для введення різноманітних тегів. В ньому можна було б записувати альтернативні назви фільму/серіалу/... які потім моніторилися пошуком і нікому не мозолили очі.
Anonymous 







2017-03-28 14:28  
drop_plz, звичайно добре, але Адмін чомусь навіть не хоче оновити список Тб-каналів та назви якості в Майстрі оформлення релізу. Хоча начебто був не проти розширення функціоналу пошуку та фільтрів до типу такого Фільтр фільмів толоки
leicheman 
Відео Гуртом - фільмокрай
Відео Гуртом - фільмокрай


З нами з: 03.07.14
Востаннє: 05.03.21
Повідомлень: 5946

2017-03-28 15:01  
Anonymous
Ну коли додасте англійські субтитри то тоді вже й назву англійську можна писати.

messer3 
Новенький


З нами з: 06.09.10
Востаннє: 05.03.21
Повідомлень: 23

2017-03-28 22:37  
не розумію чому даний формат фільму відтворюється не плавно як усі відео а з невеликими ривками?????
Чи то в мене ноут не тягне (хоча то навряд) чи то потрібен якийсь інший кодек чи то відеоплеєр. Підкажіть як то вирішити ???

Anonymous 







2017-03-28 22:49  
messer3, так, нажаль є такий глюк. Завтра подивлюсь, що пішло не так.
Electroz 
Відео Гуртом - підтримка та поширення
Відео Гуртом - підтримка та поширення


З нами з: 18.09.14
Востаннє: 05.03.21
Повідомлень: 4335

2017-03-28 22:58  
Anonymous написано:
безкоштовно протягом місяця

А далі буде платно?

Anonymous 







2017-03-28 23:58  
глючити стало після муксування в , на телеку наче норм.

Додано через 1 хвилину 34 секунди:

Electroz, не знаю, я лише процитував слова режисера зі сторінки фільма на фейсбуці.

Додано через 58 хвилин 37 секунд:

Торрент оновлено, виправлено уривчасте відтворення відеоряду у деяких програвачах

eXteSy- 
VIP


З нами з: 06.04.09
Востаннє: 05.03.21
Повідомлень: 2289

2017-05-25 22:26  
Хороше кіно. До рівня "Нескореного" не дотягує, однак ані поганим, ані навіть середняком не назву. Є незначні провисання сюжету, однак це дрібний недолік, який мало вплинув на загальне враження від фільму.
8/10

DROMON.UA 
Свій


З нами з: 07.07.12
Востаннє: 26.02.21
Повідомлень: 90

2018-03-30 19:22  
Звісно не шедевр, але фільм мене вразив. Нажаль, ще не вистачає нашим митцям досвіду та й грошей - з такого сюжету можна було б вичавити більше. Проте ставлю 9/10 й рекомендую. Особливо хочу відмітити музику до фільму. А Положинський з головним саундтреком взагалі приємно вразив. Завжди мені подобався, але це нова грань. Дуже раджу!
СивийВуйко 
Свій


З нами з: 22.01.18
Востаннє: 24.02.21
Повідомлень: 54

2018-04-15 16:16  
Стрічка варта перегляду. А коли згадуєшь що знято на основі реальних подій то і дивишся інакше. Раніше про такі події тільки розповіді чув... і не дуже в них вірилось. Сьгодні все виглядає зовсім інакше.
Слава Україні!

Іван Антонович 
Новенький


З нами з: 27.04.10
Востаннє: 03.03.21
Повідомлень: 10

2018-10-12 11:28  
Гарний фільм про живу й справжню історію, яку в нас відібрали. Дає відчути, як жили ті люди, як виживали. Головна героїня, на мою думку, прописана дуже добре. З іншими - трохи є незіставні моменти. Але фільм тримав у напрузі весь час, було і сумно, і небезпросвітно водночас. Дуже добре, що з'являється таке кіно, просте й не переобтяжене артовістю чи якоюсь шароварною героїкою.
StepKryha 
Поважний учасник


З нами з: 21.06.17
Востаннє: 05.03.21
Повідомлень: 211

2019-01-18 16:41  
Хороший фільм. Спочатку думав, що буде типова/нудна історія кохання, але творці зробили дещо несподіване для мене. Happy У історичному підтексті та за нестандартних умов, сюжет йде дуже добре.
7.5 / 10. Рекомендую до перегляду.

Mahasun 
Частий відвідувач


З нами з: 09.06.08
Востаннє: 01.03.21
Повідомлень: 29

2019-01-29 10:56  
А чого раптом в "Інші релізи" потрапив фільм "Проект Лазар"?
Anonymous 







2019-02-05 03:27  
Гарний фільм.
Ваш часовий пояс: GMT + 2 Години

Нова тема   Відповісти