Пробудження / Passengers (2016) 720p-mini (60 fps)

Нові коментарі

Нова тема   Відповісти
Автор Повідомлення
Drool 
VIP


З нами з: 17.04.10
Востаннє: 15.10.19
Повідомлень: 1518

2017-03-27 13:36  
Пробудження / Passengers (2016) 720p-mini (60 fps)

Пробудження / Passengers (2016) 720p-mini (60 fps)


Жанр: пригодницький, драма, романтичний, фантастика
Країна: США


Діти до 13 років допускаються на фільм тільки з батьками
Настійне застереження батькам. Деякий матеріал може бути невідповідним для дітей до 13 років. Цей рейтинг показує, що оцінений фільм може бути невідповідним для дітей. Батьки повинні бути особливо обережні, дозволяючи своїм маленьким дітям перегляд. Грубе або тривале насильство відсутнє; сексуальна орієнтація на наготу відсутня; деякі сцени вживання наркотиків можуть бути присутніми; можна почути одиничні вживання грубої сексуальної лексики. Присутня епізодична оголеність (не враховуючи репродуктивні органи). Присутні сексуальні натяки і натяки на гомосексуалізм чи сексуальні збочення.
Кінокомпанія: Columbia Pictures, LStar Capital, Village Roadshow Pictures
Режисер: Мортен Тільдум
Актори: Дженніфер Лоуренс, Кріс Пратт, Майкл Шин, Енді Ґарсіа, Лоуренс Фішберн, Джеймі Сорічеллі, Кімберлі Баттіста, Аврора Перріно та інші

Сюжет:
Космічний корабель з п'ятьма тисячами пасажирів на борту, занурених на час польоту в штучний сон, тримає курс на планету, яка стане для них новим будинком. Все йде за планом, але через збій системи двоє пасажирів несподівано прокидаються і розуміють, що до кінцевого пункту подорожі - 90 років шляху, і їм судилося залишок життя провести удвох в розкішних інтер'єрах корабля, оснащеного за останнім словом техніки. Поступово Джима і Аврору починає непереборно тягнути один до одного, але корабель потрапляє в біду, і тепер в їхніх руках - життя і доля всіх мешканців корабля.


Тривалість: 01:56:11
Якість: 720p-mini
Відео:
кодек:
розмір кадру: 1280x536
бітрейт: 4477 кб/с
crf: 17.0 [vbv_maxrate=14000]
кадрів на секунду: 60.0 к/с

Аудіо:
мова: українська
переклад: професійний дубльований
кодек: 5.1
бітрейт: 448 кб/с

Джерело озвучення:


Субтитри:
мова: українська
тип: програмні (м'які) форсовані
формат: *.srt
Info
Код:
General
Unique ID                                : 313650993586825414487275602221359256388 (0xEBF6FBEB9708004E7523295136695344)
Complete name                            : /mnt/disk_d/Video/Passengers.2016.Ukr.Dub.BDRip720p-mini.60fps.
Format                                   :
Format version                           : Version 4 / Version 2
File size                                : 4.08 GiB
Duration                                 : 1h 56mn
Overall bit rate                         : 5 025 Kbps
Movie name                               : Пробудження / Passengers (2016) 720p-mini (60 fps) | by NNNB
Encoded date                             : UTC 2017-03-27 11:23:05
Writing application                      : v9.7.1 ('Pandemonium') 64bit
Writing library                          : libebml v1.3.4 + v1.4.5
Attachements                             : cover.png
DURATION                                 : 01:48:01.273000000
NUMBER_OF_FRAMES                         : 13
NUMBER_OF_BYTES                          : 510
_STATISTICS_WRITING_APP                  : v9.7.1 ('Pandemonium') 64bit
_STATISTICS_WRITING_DATE_UTC             : 2017-03-27 11:23:05
_STATISTICS_TAGS                         : BPS DURATION NUMBER_OF_FRAMES NUMBER_OF_BYTES

Video
ID                                       : 1
Format                                   : AVC
Format/Info                              : Advanced Video Codec
Format profile                           : [email protected]
Format settings, CABAC                   : Yes
Format settings, ReFrames                : 9 frames
Codec ID                                 : V_MPEG4/ISO/AVC
Duration                                 : 1h 56mn
Bit rate                                 : 4 477 Kbps
Width                                    : 1 280 pixels
Height                                   : 536 pixels
Display aspect ratio                     : 2.40:1
Frame rate mode                          : Constant
Frame rate                               : 60.000 fps
Color space                              : YUV
Chroma subsampling                       : 4:2:0
Bit depth                                : 8 bits
Scan type                                : Progressive
Bits/(Pixel*Frame)                       : 0.109
Stream size                              : 3.63 GiB (89%)
Title                                    : Пробудження / Passengers (2016) 720p-mini (60 fps) | by NNNB
Writing library                          : core 146 r2538 121396c
Encoding settings                        : cabac=1 / ref=9 / deblock=1:0:0 / analyse=0x3:0x113 / me=umh / subme=11 / psy=1 / psy_rd=1.00:0.00 / mixed_ref=1 / me_range=24 / chroma_me=1 / trellis=2 / 8x8dct=1 / cqm=0 / deadzone=21,11 / fast_pskip=0 / chroma_qp_offset=-2 / threads=12 / lookahead_threads=1 / sliced_threads=0 / nr=0 / decimate=1 / interlaced=0 / bluray_compat=0 / constrained_intra=0 / bframes=5 / b_pyramid=2 / b_adapt=2 / b_bias=0 / direct=3 / weightb=1 / open_gop=0 / weightp=2 / keyint=250 / keyint_min=25 / scenecut=40 / intra_refresh=0 / rc_lookahead=40 / rc=crf / mbtree=0 / crf=17.0 / qcomp=0.60 / qpmin=0 / qpmax=69 / qpstep=4 / vbv_maxrate=14000 / vbv_bufsize=14000 / crf_max=0.0 / nal_hrd=none / filler=0 / ip_ratio=1.40 / pb_ratio=1.30 / aq=3:1.00
Default                                  : Yes
Forced                                   : Yes
DURATION                                 : 01:56:10.867000000
NUMBER_OF_FRAMES                         : 418252
NUMBER_OF_BYTES                          : 3984563639
_STATISTICS_WRITING_APP                  : v9.7.1 ('Pandemonium') 64bit
_STATISTICS_WRITING_DATE_UTC             : 2017-03-27 11:23:05
_STATISTICS_TAGS                         : BPS DURATION NUMBER_OF_FRAMES NUMBER_OF_BYTES

Audio
ID                                       : 2
Format                                   : AC-3
Format/Info                              : Audio Coding 3
Mode extension                           : CM (complete main)
Format settings, Endianness              : Big
Codec ID                                 : A_AC3
Duration                                 : 1h 56mn
Bit rate mode                            : Constant
Bit rate                                 : 448 Kbps
Channel(s)                               : 6 channels
Channel positions                        : Front: L C R, Side: L R, LFE
Sampling rate                            : 48.0 KHz
Compression mode                         : Lossy
Stream size                              : 372 MiB (9%)
Title                                    : 5.1 @ 448 kbps
Language                                 : Ukrainian
Default                                  : Yes
Forced                                   : Yes

Text
ID                                       : 3
Format                                   : UTF-8
Codec ID                                 : S_TEXT/UTF8
Codec ID/Info                            : UTF-8 Plain Text
Title                                    : Forced
Language                                 : Ukrainian
Default                                  : Yes
Forced                                   : Yes
Скріншоти



Джерело відеоряду:
Особиста оцінка: 9 - давно не бачив настільки якісне кіно


 Трекер:    Зареєстрований   

Завантажити / скачати фільм українською



відео для новачків



 Зареєстрований:   2017-03-27 14:55
 Розмір:   4.08 GB 
 Оцінка фільму:   9.6/10 (Голосів: 28)
   
bot 
робот


З нами з: 30.09.07
Востаннє: 26.05.05
Повідомлень: 22304

2017-03-27 14:55  
Тему перенесено з Анонси релізів до форуму Фільми в HD


Drool

Sergio_88 
Новенький


З нами з: 03.01.13
Востаннє: 12.10.19
Повідомлень: 1

2017-03-28 19:44  
Дякую. А буде версiя 1080р 60 FPS?
Drool 
VIP


З нами з: 17.04.10
Востаннє: 15.10.19
Повідомлень: 1518

2017-03-28 22:41  
Sergio_88 написано:
Дякую. А буде версiя 1080р 60 FPS?
Від мене - ні. А що вам заважає знайти потрібний відеоряд і накласти звук? Викладете на толоці, люди будуть вдячні Wink (1)
Ваш часовий пояс: GMT + 2 Години

Нова тема   Відповісти