Формула 1. Сезон 2017. Перегони (3 етапи з 20) | Feed (2017) 720p 50fps Ukr/Eng/Int

Нові коментарі

Нова тема   Відповісти
Автор Повідомлення
sergiyko.5 
VIP


З нами з: 25.02.16
Востаннє: 27.04.17
Повідомлень: 720

2017-03-27 01:20  
Формула 1. Сезон 2017. Перегони (3 етапи з 20) | Feed (2017) 720p 50fps Ukr/Eng/Int

Формула 1. Сезон 2017. Перегони (3 етапи з 20) | Feed (2017) 720p 50fps Ukr/Eng/Int

Вид спорту: Перегони Формула 1
Джерело: Feed
Якість:

Відео: кодек: , контейнер: , бітрейт: 7000 кб/с, розмір кадру: 1280х720
Аудіо #1: коментар: українська, аудіокодек: 5.1, бітрейт аудіо: 384 кб/с | Максим Подзігун |
Аудіо #2: коментар: англійська, аудіокодек: 5.1, бітрейт аудіо: 384 кб/с | D. Croft, M. Brundle |
Аудіо #3: коментар: -, аудіокодек: 5.1, бітрейт аудіо: 448 кб/с | Інтершум |

Етап 1. Гран-прі Австралії. Перегони (26.03.2017) 720p

Коротенький опис:
26 березня 2017 року відбувся перший етап Формули 1 Гран-Прі Австралії.

Тривалість: 01:56:35
Етап 2. Гран-прі Китаю. Перегони (09.04.2017) 720p

Коротенький опис:
9 квітня 2017 року відбувся другий етап Формули 1 Гран-Прі Китаю.

Тривалість: 02:16:01
Етап 3. Гран-Прі Бахрейну. Перегони (16.04.2017) 720p

Коротенький опис:
16 квітня 2017 року відбувся другий етап Формули 1 Гран-Прі Бахрейну.

Тривалість: 02:05:25

Інформація про файл:

General
Unique ID : 198763614387582030179072312769253959143 (0x95887ACC5525E370A454C234FBC765E7)
Complete name : D:\Torrents\F1 2017\F1.2017.01.Australia.Race.AVC.720p.50fps.
Format :
Format version : Version 4 / Version 2
File size : 6.78 GiB
Duration : 1h 56mn
Overall bit rate : 8 323 Kbps
Encoded date : UTC 2017-03-26 22:10:07
Writing application : mkvmerge v9.8.0 ('Kuglblids') 64bit
Writing library : libebml v1.3.4 + libmatroska v1.4.5
DURATION : 01:56:34.592000000
NUMBER_OF_FRAMES : 218581
NUMBER_OF_BYTES : 391697152
_STATISTICS_WRITING_APP : mkvmerge v9.8.0 ('Kuglblids') 64bit
_STATISTICS_WRITING_DATE_UTC : 2017-03-26 22:10:07
_STATISTICS_TAGS : BPS DURATION NUMBER_OF_FRAMES NUMBER_OF_BYTES

Video
ID : 1
Format : AVC
Format/Info : Advanced Video Codec
Format profile : [email protected]
Format settings, CABAC : Yes
Format settings, ReFrames : 4 frames
Codec ID : V_MPEG4/ISO/AVC
Duration : 1h 56mn
Bit rate : 6 942 Kbps
Width : 1 280 pixels
Height : 720 pixels
Display aspect ratio : 16:9
Frame rate mode : Constant
Frame rate : 50.000 fps
Color space : YUV
Chroma subsampling : 4:2:0
Bit depth : 8 bits
Scan type : Progressive
Bits/(Pixel*Frame) : 0.151
Stream size : 5.65 GiB (83%)
Language : English
Default : Yes
Forced : No
DURATION : 01:56:34.580000000
NUMBER_OF_FRAMES : 349729
NUMBER_OF_BYTES : 6210614638
_STATISTICS_WRITING_APP : mkvmerge v9.8.0 ('Kuglblids') 64bit
_STATISTICS_WRITING_DATE_UTC : 2017-03-26 22:10:07
_STATISTICS_TAGS : BPS DURATION NUMBER_OF_FRAMES NUMBER_OF_BYTES

Audio #1
ID : 2
Format : AC-3
Format/Info : Audio Coding 3
Mode extension : CM (complete main)
Format settings, Endianness : Big
Codec ID : A_AC3
Duration : 1h 56mn
Bit rate mode : Constant
Bit rate : 384 Kbps
Channel(s) : 6 channels
Channel positions : Front: L C R, Side: L R, LFE
Sampling rate : 48.0 KHz
Compression mode : Lossy
Delay relative to video : 9ms
Stream size : 320 MiB (5%)
Title : Максим Подзігун
Language : Ukrainian
Default : Yes
Forced : Yes

Audio #2
ID : 3
Format : AC-3
Format/Info : Audio Coding 3
Mode extension : CM (complete main)
Format settings, Endianness : Big
Codec ID : A_AC3
Duration : 1h 56mn
Bit rate mode : Constant
Bit rate : 384 Kbps
Channel(s) : 6 channels
Channel positions : Front: L C R, Side: L R, LFE
Sampling rate : 48.0 KHz
Compression mode : Lossy
Delay relative to video : 9ms
Stream size : 320 MiB (5%)
Title : SkySports F1
Language : English
Default : No
Forced : No

Audio #3
ID : 4
Format : AC-3
Format/Info : Audio Coding 3
Mode extension : CM (complete main)
Format settings, Endianness : Big
Codec ID : A_AC3
Duration : 1h 56mn
Bit rate mode : Constant
Bit rate : 448 Kbps
Channel(s) : 6 channels
Channel positions : Front: L C R, Side: L R, LFE
Sampling rate : 48.0 KHz
Compression mode : Lossy
Delay relative to video : 9ms
Stream size : 374 MiB (5%)
Title : Natural Sounds
Default : No
Forced : No
Скріншоти:


Ріп зроблено з FEED HDTV 1080i.
Автор ріпу: Shewa1


Бронзовий реліз (на рейтинг впливає 75% завантаженого)
 Трекер:    Зареєстрований   

Завантажити / скачати торрент



відео для новачків



 Зареєстрований:   2017-04-17 20:05
 Розмір:   17.19 GB 
 Оцінка:   9.2/10 (Голосів: 13)
   
duce 
Новенький


З нами з: 09.05.11
Востаннє: 29.03.17
Повідомлень: 5

2017-03-27 02:26  
Цього сезону буде всього 20 гонок, Гран-прі Німеччини не відбудеться. Виправте в назві.
lightinsight 
Частий відвідувач


З нами з: 07.04.14
Востаннє: 27.04.17
Повідомлень: 45

2017-03-27 10:48  
Дуже дякую!
[email protected] 
Новенький


З нами з: 07.01.17
Востаннє: 26.04.17
Повідомлень: 1

2017-04-07 23:18  
<3<3<3<3<3<3 велике спасибі
sergiyko.5 
VIP


З нами з: 25.02.16
Востаннє: 27.04.17
Повідомлень: 720

2017-04-10 08:57  
Додав другий етап Гран-Прі Китаю.
sergiyko.5 
VIP


З нами з: 25.02.16
Востаннє: 27.04.17
Повідомлень: 720

2017-04-17 20:06  
Додав третій етап Гран-Прі Бахрейну.
autxl 
Новенький


З нами з: 16.11.16
Востаннє: 26.04.17
Повідомлень: 2

2017-04-18 18:49  
Дякую за роздачу.Дуже скучились за українським коментарем Макса. Але чому не в 1080.
sergiyko.5 
VIP


З нами з: 25.02.16
Востаннє: 27.04.17
Повідомлень: 720

2017-04-19 15:12  
autxl написано:
чому не в 1080.


По перше в мережі немає якісних ріпів 1080.
По друге по данним автора цих ріпів Shewa1 (найкращого ріпера F1) різниця між 1080 та 720 доволі незначна.
По третє - хто буде підтримувати роздачі!? Маю матеріал багатьох етапів українською з 2007 року у якості 720p, місця це добро займає 800Гб, ріпи у якості 1080 займали би в півтори рази більше. Зарелізив перегони 2016 року 140Гб - на роздачі один сід.

autxl 
Новенький


З нами з: 16.11.16
Востаннє: 26.04.17
Повідомлень: 2

2017-04-19 18:43  
Ви все правильно говорите,але перегони з 2007 по 2016р. то вже історія і массово підтримувати роздачу, як на мене, не будуть.Різниця в якості між 720 та 1080 всеж таки є.Спробуйте на одну гоночку,не буде підтримки,не будете надалі це робити.Я підтримаю роздачу.Ще раз дякую за любу роздачу.
sergiyko.5 
VIP


З нами з: 25.02.16
Востаннє: 27.04.17
Повідомлень: 720

2017-04-19 19:34  
Що значить - спробуйте. Я ясно написав, це не мої ріпи, готових немає. Я звичайно спілкувався з автором, і досягнув деяких результатів рівня якості не гіршої, але моя техніка дозволить перекодувати один етап за дві доби. Кому це буде потрібно? Одному двом користувачам?
В мене є багато іншої роботи і прохань продовжити зведення та ріпування десятка незакінчених релізів. Так що вважаю неефективним створення такого ріпу. Можу з метою наглядності зробити уривок для порівняння.

Ваш часовий пояс: GMT + 2 Години

Нова тема   Відповісти