Росомаха / The Wolverine (2013) AVC | sub Ukr

Нові коментарі

Нова тема   Відповісти
Автор Повідомлення
Anonymous 







2017-03-26 23:50  
Росомаха / The Wolverine (2013) AVC


Росомаха / The Wolverine (2013) AVC | sub Ukr
Оригінальні постери
Росомаха / The Wolverine (2013) AVC | sub Ukr
Росомаха / The Wolverine (2013) AVC | sub Ukr
Росомаха / The Wolverine (2013) AVC | sub Ukr
Росомаха / The Wolverine (2013) AVC | sub Ukr
Жанр: екшн, пригодницький, фантастика
Країна: Австралія ,США

Кінокомпанія: Twentieth Century Fox Film Corporation, Marvel Entertainment, Dune Entertainment
Режисер: Джеймс Менґолд / James Mangold
Актори: Г'ю Джекмен / Hugh Jackman, Фамке Янссен / Famke Janssen, Вілл Юн Лі / Will Yun Lee, Брайан Ті / Brian Tee, Гіроюкі Санада / Hiroyuki Sanada та інші

Сюжет:
Лоґан вирушає до Японії, де закохується в дочку голови клану Якудза. Заради любові Лоґану доведеться протистояти її батькові Сінґене, братові Самураю, найманці Гадюці та іншим небезпечним ворогам.

Рейтинг MPAA: PG-13 - дітям до 13 років рекомендується присутність батьків
Вікова категорія: 12+
Тривалість: 02:06:08
Якість:
Відео:
кодек:
розмір кадру: 1044x434
бітрейт: 1 712 кб/с

Аудіо:
мова: українська
озвучення: професійне дубльоване
кодек: 2.0
бітрейт: 192 кб/с
Інформація про дубляж
Дубльовано студією Postmodern на замовлення компанії Gemini
Переклад і укладка тексту: Надії Вальнюк
Режисер дубляжу: Алла Пасікова
Асистент режисера: Андрій Ржанов
Монтаж звуку і звукорежисер: Олександр Козярук
Менеджер проекту: Ірина Туловська
Ролі дублювали: Г’ю Джекмен/Лоґан/Росомаха — Юрій Ребрик, Віктор Крід/Шаблезуб — Микола Боклан, Денні Г’юстон/Страйкер — Володимир Нечепоренко, Вейд Вілсон — Петро Сова; Мансон, а також Тревіс Гадсон — Анатолій Пашнін; Пес/Малий Крід — Олександр Сажен; Томас Лоґан, а також Брелі Болт — В’ячеслав Дудко; Елізабет Г’юлет — Катерина Качан, Кейла — Наталя Ярошенко; Доктор Керол Фрост, а також Гезер Гадсон — Тетяна Антонова; Фреді Джей Дюкс/Блоб — Євген Сінчуков, Ґамбіт (Ремі Лебо) — Олексій Череватенко, Віл Ай Ем/Джон Райт — Юрій Юрій Коваленко, Зеро — Дмитро Чернов, Емма — Ганна Кузіна; а також: Тетяна Чичило, Роман Роман Чорний, Микола Кашеїда, Дмитро Обрізан та інші.

Субтитри # 1:
мова: українська
тип: програмні (м'які)
формат: *.srt
Info
Код:
General
Unique ID                      : 171998380961475041553391253645490267702 (0x8165AEE80771F020BE6A73D2FE2A2636)
Complete name                  : D:\Роздачі\The Wolverine (2013) AVC [UKR. SUB UKR] [HURTOM].
Format                         :
Format version                 : Version 4 / Version 2
File size                      : 1.68 GiB
Duration                       : 2h 6mn
Overall bit rate               : 1 903 Kbps
Encoded date                   : UTC 2017-03-29 18:25:38
Writing application            : mkvmerge v9.3.1 ('Mask Machine') 64bit
Writing library                : libebml v1.3.4 + libmatroska v1.4.5
DURATION                       : 02:06:08.544000000
NUMBER_OF_FRAMES               : 236517
NUMBER_OF_BYTES                : 181645056
_STATISTICS_WRITING_APP        : mkvmerge v9.3.1 ('Mask Machine') 64bit
_STATISTICS_WRITING_DATE_UTC   : 2017-03-29 18:25:38
_STATISTICS_TAGS               : BPS DURATION NUMBER_OF_FRAMES NUMBER_OF_BYTES

Video
ID                             : 1
Format                         : AVC
Format/Info                    : Advanced Video Codec
Format profile                 : [email protected]
Format settings, CABAC         : Yes
Format settings, ReFrames      : 10 frames
Codec ID                       : V_MPEG4/ISO/AVC
Duration                       : 2h 6mn
Bit rate                       : 1 712 Kbps
Width                          : 1 044 pixels
Height                         : 434 pixels
Display aspect ratio           : 2.40:1
Frame rate mode                : Constant
Frame rate                     : 23.976 fps
Color space                    : YUV
Chroma subsampling             : 4:2:0
Bit depth                      : 8 bits
Scan type                      : Progressive
Bits/(Pixel*Frame)             : 0.158
Stream size                    : 1.47 GiB (88%)
Title                          : The Wolverine
Writing library                : core 130 r2273 b3065e6
Encoding settings              : cabac=1 / ref=10 / deblock=1:-3:-2 / analyse=0x3:0x133 / me=umh / subme=11 / psy=1 / psy_rd=1.04:0.00 / mixed_ref=1 / me_range=48 / chroma_me=1 / trellis=2 / 8x8dct=1 / cqm=0 / deadzone=21,11 / fast_pskip=0 / chroma_qp_offset=-2 / threads=9 / lookahead_threads=7 / sliced_threads=0 / nr=0 / decimate=0 / interlaced=0 / bluray_compat=0 / constrained_intra=0 / bframes=11 / b_pyramid=2 / b_adapt=2 / b_bias=0 / direct=3 / weightb=1 / open_gop=0 / weightp=2 / keyint=250 / keyint_min=23 / scenecut=40 / intra_refresh=0 / rc_lookahead=60 / rc=2pass / mbtree=0 / bitrate=1712 / ratetol=1.0 / qcomp=0.70 / qpmin=0 / qpmax=69 / qpstep=4 / cplxblur=20.0 / qblur=0.5 / vbv_maxrate=20000 / vbv_bufsize=20000 / nal_hrd=none / ip_ratio=1.35 / pb_ratio=1.25 / aq=1:0.80
Language                       : English
Default                        : Yes
Forced                         : No
DURATION                       : 02:06:07.823000000
NUMBER_OF_FRAMES               : 181446
NUMBER_OF_BYTES                : 1616672013
_STATISTICS_WRITING_APP        : mkvmerge v9.3.1 ('Mask Machine') 64bit
_STATISTICS_WRITING_DATE_UTC   : 2017-03-29 18:25:38
_STATISTICS_TAGS               : BPS DURATION NUMBER_OF_FRAMES NUMBER_OF_BYTES

Audio
ID                             : 2
Format                         : AC-3
Format/Info                    : Audio Coding 3
Mode extension                 : CM (complete main)
Format settings, Endianness    : Big
Codec ID                       : A_AC3
Duration                       : 2h 6mn
Bit rate mode                  : Constant
Bit rate                       : 192 Kbps
Channel(s)                     : 2 channels
Channel positions              : Front: L R
Sampling rate                  : 48.0 KHz
Compression mode               : Lossy
Stream size                    : 173 MiB (10%)
Language                       : Ukrainian
Default                        : Yes
Forced                         : No

Text
ID                             : 3
Format                         : UTF-8
Codec ID                       : S_TEXT/UTF8
Codec ID/Info                  : UTF-8 Plain Text
Language                       : Ukrainian
Default                        : No
Forced                         : No

Menu
00:00:00.000                   : en:(01)00:00:00:000
00:05:03.720                   : en:(02)00:05:03:720
00:07:39.667                   : en:(03)00:07:39:667
00:08:40.436                   : en:(04)00:08:40:436
00:10:25.499                   : en:(05)00:10:25:499
00:13:56.794                   : en:(06)00:13:56:794
00:16:49.299                   : en:(07)00:16:49:299
00:19:13.068                   : en:(08)00:19:13:068
00:22:03.321                   : en:(09)00:22:03:321
00:26:38.304                   : en:(10)00:26:38:304
00:28:53.398                   : en:(11)00:28:53:398
00:30:21.402                   : en:(12)00:30:21:402
00:33:43.145                   : en:(13)00:33:43:145
00:38:08.244                   : en:(14)00:38:08:244
00:42:42.309                   : en:(15)00:42:42:309
00:44:19.072                   : en:(16)00:44:19:072
00:47:06.740                   : en:(17)00:47:06:740
00:52:38.279                   : en:(18)00:52:38:279
00:54:37.315                   : en:(19)00:54:37:315
01:00:06.477                   : en:(20)01:00:06:477
01:06:16.221                   : en:(21)01:06:16:221
01:11:36.959                   : en:(22)01:11:36:959
01:16:25.205                   : en:(23)01:16:25:205
01:19:30.807                   : en:(24)01:19:30:807
01:22:34.574                   : en:(25)01:22:34:574
01:27:33.205                   : en:(26)01:27:33:205
01:30:37.139                   : en:(27)01:30:37:139
01:33:00.032                   : en:(28)01:33:00:032
01:36:33.203                   : en:(29)01:36:33:203
01:40:14.216                   : en:(30)01:40:14:216
01:43:04.511                   : en:(31)01:43:04:511
01:46:07.569                   : en:(32)01:46:07:569
01:51:06.075                   : en:(33)01:51:06:075
01:53:01.482                   : en:(34)01:53:01:482
01:55:50.776                   : en:(35)01:55:50:776
01:57:21.450                   : en:(36)01:57:21:450
02:06:08.310                   : en:(37)02:06:08:310
Скріншоти

Джерело: &
Особиста оцінка: 8 - мені сподобалося
Висловлюю подяку пану AngryBirdsUA за доріжку і наданий відеоряд, і пану Hanway за синхронізацію звукової доріжки.

Підтримати купівлю інших фільмів можна тут



 Трекер:    Зареєстрований   

Завантажити / скачати фільм українською



відео для новачків



 Зареєстрований:   2017-03-29 21:43
 Розмір:   1.68 GB 
 Оцінка фільму:   5.3/10 (Голосів: 19)
   
bot 
робот


З нами з: 30.09.07
Востаннє: 26.05.05
Повідомлень: 16818

2017-03-26 23:50  
Тему перенесено з Фільми до форуму Анонси релізів


Patriot_ukr

usibat2015 
Свій


З нами з: 20.10.15
Востаннє: 29.04.17
Повідомлень: 64

2017-03-27 17:03  
Привіт а буде в бд ріп HEVC дуже прошу?
Blanove 
Новенький


З нами з: 01.05.15
Востаннє: 26.04.17
Повідомлень: 9

2017-03-29 09:42  
о, дякую, а звук з DVD/Blu-ray чи ТБ?
Kozak133 
Новенький


З нами з: 07.12.15
Востаннє: 29.04.17
Повідомлень: 16

2017-03-29 11:57  
Поясніть в чому прикол анонсів, як дізнатися, коли вийде на торрент?
Anonymous 







2017-03-29 16:26  
Blanove, Меґоґо
Kozak133, 1. Забити реліз; 2. Щоб більше людей дізналось про реліз

bot 
робот


З нами з: 30.09.07
Востаннє: 26.05.05
Повідомлень: 16818

2017-03-29 21:43  
Тему перенесено з Анонси релізів до форуму Фільми


Patriot_ukr

Ваш часовий пояс: GMT + 2 Години

Нова тема   Відповісти