Assassin's Creed: Кредо вбивці / Assassin's Creed (2016) 1080p 3D [Half OverUnder] Ukr/Eng | Sub Ukr/Eng

Нові коментарі

Нова тема   Відповісти
Автор Повідомлення
Anonymous 







2017-03-26 00:31  
Assassin's Creed: Кредо вбивці / Assassin's Creed (2016) 1080p 3D [Half OverUnder] Ukr/Eng | Sub Ukr/Eng

Альтернативні постери










повнорозмірні зображення відкриються по кліку (з натиснутим CTRL чи кліком середньою кнопкою мишки - у новій вкладці)


Жанр: фантастика, фентезі, бойовик, пригодницький
Країна: Велика Британія, Франція, Гонконг, США, Тайвань, Мальта, Канада



Кінокомпанія: Regency Enterprises, Ubisoft, New Regency Pictures, Ubisoft Motion Pictures, DMC Film, Kennedy/Marshall Company, RatPac Entertainment, Alpha Pictures, CatchPlay, Monarchy Enterprises S.a.r.l., Helicopter Film Services, Latina Pictures
Режисер: Джастін Курзель / Justin Kurzel
Актори: Майкл Фассбендер / Michael Fassbender, Маріон Котіяр / Marion Cotillard, Джеремі Айронс / Jeremy Irons, Брендан Глісон / Brendan Gleeson, Шарлотта Ремплінг / Charlotte Rampling, Майкл Кеннет Вільямс / Michael Kenneth Williams, Дені Меноше / Denis Ménochet, Аріана Лабед / Ariane Labed, Халід Абдалла / Khalid Abdalla, Ессі Девіс / Essie Davis та інші

Сюжет:
Завдяки революційним технологіям, що дозволяють викликати в пам'яті спогади колишніх поколінь, Каллум Лінч проживає пригоди свого предка Аґілара в Іспанії 15-го століття. Каллум дізнається, що є нащадком членів загадкового таємного товариства ассасінів. Накопичивши неймовірні знання та навички, він вступає в протистояння з могутньою і жорстокою організацією тамплієрів у наші дні.

Офіційні українські трейлери:




Рейтинг MPAA: PG-13, вікова категорія: 15+

Тривалість: 01:55:31
Якість: 1080p 3D [Ash61]
Відео:
кодек:
розмір кадру: 1920 х 1080
бітрейт: 9246 Мб/с
формат 3D: Half OverUnder / Вертикальна анаморфна стереопара
порядок ракурсів: лівий ракурс перший
Відео для перегляду на 3D обладнанні!

Аудіо # 1:
мова: українська
переклад: професійний дубльований | Postmodern
кодек: 5.1
бітрейт: 448 кб/с
Інформація про дубляж:
Переклад: Олег Пашин
Режисер дубляжу: Катерина Брайковська
Звукорежисер перезапису: Денис Поляський
Ролі дублювали: Каллум – Андрій Твердак, Софія – Наталя Романько-Кисельова, Алан – Юрій Гребельник, Муса – Кирило Нікітенко, Мати – Світлана Шекера, Юний Каллум – Дем'ян Шиян, Натан – Дмитро Сова та інші.

Фільм дубльовно компанією Postmodern


Аудіо # 2:
мова: англійська
переклад: оригінал
кодек: 5.1
бітрейт: 640 кб/с

Субтитри # 1-2:
мова: українська (форсовані, повні)
тип: програмні (м'які)
формат: *.srt

Субтитри # 3-5:
мова: англійська (форсовані, повні, SDH)
тип: програмні (м'які)
формат: *.srt

Збережено оригінальні розділи, як на Blu-ray
Info
Код:
Format                      :
Format version              : Version 4 / Version 2
File size                   : 8.34 GiB
Duration                    : 1 h 55 min
Overall bit rate            : 10.3 Mb/s

Video
ID                          : 1
Format                      : AVC
Format/Info                 : Advanced Video Codec
Format profile              : [email protected]
Format settings, CABAC      : Yes
Format settings, ReFrames   : 4 frames
Codec ID                    : V_MPEG4/ISO/AVC
Duration                    : 1 h 55 min
Bit rate                    : 9 246 kb/s
Width                       : 1 920 pixels
Height                      : 1 080 pixels
Display aspect ratio        : 16:9
Frame rate mode             : Constant
Frame rate                  : 23.976 (24000/1001) FPS
Color space                 : YUV
Chroma subsampling          : 4:2:0
Bit depth                   : 8 bits
Scan type                   : Progressive
Bits/(Pixel*Frame)          : 0.186
Stream size                 : 7.46 GiB (89%)
Title                       : Assassin's Creed: Кредо вбивці / Assassin's Creed (2016) 1080p 3D [Half OverUnder] by Ash61
Writing library             : core 146 r2538 121396c
Encoding settings           : cabac=1 / ref=4 / deblock=1:-3:-3 / analyse=0x3:0x113 / me=umh / subme=10 / psy=1 / psy_rd=1.00:0.00 / mixed_ref=1 / me_range=32 / chroma_me=1 / trellis=2 / 8x8dct=1 / cqm=0 / deadzone=21,11 / fast_pskip=1 / chroma_qp_offset=-2 / threads=12 / lookahead_threads=3 / sliced_threads=0 / nr=0 / decimate=1 / interlaced=0 / bluray_compat=0 / constrained_intra=0 / bframes=12 / b_pyramid=2 / b_adapt=2 / b_bias=0 / direct=3 / weightb=1 / open_gop=0 / weightp=2 / keyint=250 / keyint_min=23 / scenecut=40 / intra_refresh=0 / rc_lookahead=60 / rc=crf / mbtree=0 / crf=16.0 / qcomp=0.70 / qpmin=0 / qpmax=69 / qpstep=4 / vbv_maxrate=40000 / vbv_bufsize=30000 / crf_max=0.0 / nal_hrd=none / filler=0 / frame-packing=4 / ip_ratio=1.40 / pb_ratio=1.30 / aq=1:0.70
Language                    : English
Default                     : Yes
Forced                      : No

Audio #1
ID                          : 2
Format                      : AC-3
Format/Info                 : Audio Coding 3
Format settings, Endianness : Big
Codec ID                    : A_AC3
Duration                    : 1 h 55 min
Bit rate mode               : Constant
Bit rate                    : 448 kb/s
Channel(s)                  : 6 channels
Channel positions           : Front: L C R, Side: L R, LFE
Sampling rate               : 48.0 kHz
Frame rate                  : 31.250 FPS (1536 spf)
Bit depth                   : 16 bits
Compression mode            : Lossy
Stream size                 : 370 MiB (4%)
Title                       : Dub [Postmodern, BD 3D Eur] 5.1 448 Kbps
Language                    : Ukrainian
Service kind                : Complete Main
Default                     : Yes
Forced                      : Yes

Audio #2
ID                          : 3
Format                      : AC-3
Format/Info                 : Audio Coding 3
Format settings, Endianness : Big
Codec ID                    : A_AC3
Duration                    : 1 h 55 min
Bit rate mode               : Constant
Bit rate                    : 640 kb/s
Channel(s)                  : 6 channels
Channel positions           : Front: L C R, Side: L R, LFE
Sampling rate               : 48.0 kHz
Frame rate                  : 31.250 FPS (1536 spf)
Bit depth                   : 16 bits
Compression mode            : Lossy
Stream size                 : 529 MiB (6%)
Title                       : Original, 5.1 640 Kbps
Language                    : English
Service kind                : Complete Main
Default                     : No
Forced                      : No

Text #1
ID                          : 4
Format                      : UTF-8
Codec ID                    : S_TEXT/UTF8
Codec ID/Info               : UTF-8 Plain Text
Duration                    : 1 h 31 min
Bit rate                    : 8 b/s
Count of elements           : 116
Stream size                 : 5.79 KiB (0%)
Title                       : Ukr Forced
Language                    : Ukrainian
Default                     : Yes
Forced                      : Yes

Text #2
ID                          : 5
Format                      : UTF-8
Codec ID                    : S_TEXT/UTF8
Codec ID/Info               : UTF-8 Plain Text
Duration                    : 1 h 54 min
Bit rate                    : 37 b/s
Count of elements           : 676
Stream size                 : 31.7 KiB (0%)
Title                       : Ukr Full
Language                    : Ukrainian
Default                     : No
Forced                      : No

Text #3
ID                          : 6
Format                      : UTF-8
Codec ID                    : S_TEXT/UTF8
Codec ID/Info               : UTF-8 Plain Text
Duration                    : 1 h 18 min
Bit rate                    : 4 b/s
Count of elements           : 99
Stream size                 : 2.76 KiB (0%)
Title                       : Eng Forced
Language                    : English
Default                     : No
Forced                      : No

Text #4
ID                          : 7
Format                      : UTF-8
Codec ID                    : S_TEXT/UTF8
Codec ID/Info               : UTF-8 Plain Text
Duration                    : 1 h 42 min
Bit rate                    : 26 b/s
Count of elements           : 729
Stream size                 : 19.5 KiB (0%)
Title                       : Eng Full
Language                    : English
Default                     : No
Forced                      : No

Text #5
ID                          : 8
Format                      : UTF-8
Codec ID                    : S_TEXT/UTF8
Codec ID/Info               : UTF-8 Plain Text
Duration                    : 1 h 42 min
Bit rate                    : 29 b/s
Count of elements           : 884
Stream size                 : 22.3 KiB (0%)
Title                       : Eng SDH
Language                    : English
Default                     : No
Forced                      : No

Menu
00:00:00.000                : :1
00:06:04.155                : :2
00:09:32.697                : :3
00:12:47.517                : :4
00:16:47.715                : :5
00:21:07.433                : :6
00:26:56.448                : :7
00:31:55.080                : :8
00:38:06.284                : :9
00:41:43.167                : :10
00:46:33.040                : :11
00:50:10.257                : :12
00:53:04.390                : :13
00:56:17.624                : :14
00:59:26.480                : :15
01:02:32.582                : :16
01:06:37.035                : :17
01:13:08.759                : :18
01:18:45.888                : :19
01:23:01.101                : :20
01:30:17.996                : :21
01:34:18.194                : :22
01:37:45.193                : :23
01:40:51.003                : :24


Джерело: &
Подяка за українські форсовані субтитри комусь з: Ash61, Mant1kor, Electroz

ЗАЛИШАЙТЕСЬ ЯКОМОГА ДОВШЕ НА РОЗДАЧІ
ЗАВАНТАЖИВ САМ - ДАЙ ЗАВАНТАЖИТИ ІНШИМ!


 Трекер:    Зареєстрований   

Завантажити / скачати фільм українською



відео для новачків



 Зареєстрований:   2017-03-26 12:54
 Розмір:   8.34 GB 
 Оцінка фільму:   3.6/10 (Голосів: 16)
   
Інші релізи
   Assassin's Creed: Кредо вбивці / Assassin's Creed (2016) UHD 4K 2160p HDR H.265 Ukr/Eng | Sub Ukr Vladuk88  3 / 1   20.54 GB   2017-05-11 13:17 
   Assassin s Creed: Кредо вбивці / Assassin's Creed (2016) 720p Ukr/Eng | Sub Ukr/Eng leicheman  9 / 0   6.19 GB   2017-03-20 14:23 
   Assassin s Creed: Кредо вбивці / Assassin's Creed (2016) 720p-mini Drool  5 / 0   1.98 GB   2017-03-20 11:31 
   Assassin's Creed: Кредо вбивці / Assassin's Creed (2016) Remux 1080p Ukr/Eng | Sub Ukr/Eng famous37  2 / 0   29.18 GB   2017-03-18 12:07 
   Assassin's Creed: Кредо вбивці / Assassin's Creed (2016) [MP4, 640x] apvAltisimo  1 / 0   740 MB   2017-03-16 17:52 
   Assassin's Creed: Кредо вбивці / Assassin's Creed (2016) Covenant  14 / 3   1.45 GB   2017-03-16 12:30 
   Assassin's Creed: Кредо вбивці / Assassin's Creed (2016) Blu-ray 2D/3D EU 1080p Ukr/Multi | Sub Ukr/Multi famous37  0 / 0   46.26 GB   2017-03-16 01:21 
   Assassin s Creed: Кредо вбивці / Assassin's Creed (2016) AVC Ukr/Eng | Sub Ukr/Eng 11FrYkT  8 / 0   1.99 GB   2017-03-15 20:30 
   Assassin's Creed: Кредо вбивці / Assassin's Creed (2016) 1080p Ukr/Eng | Sub Ukr/Eng Electroz  10 / 0   10.36 GB   2017-03-15 17:10 
   Assassin's Creed: Кредо вбивці / Assassin's Creed (2016) Ukr/Eng | Sub Ukr/Eng Gelios  10 / 0   2.18 GB   2017-03-15 15:44 
Ваш часовий пояс: GMT + 2 Години

Нова тема   Відповісти