Кохання по-дорослому / This Is 40 (2012) 720p Ukr/Eng

Нові коментарі

Нова тема   Відповісти
Автор Повідомлення
Anonymous 







2017-03-25 23:48  
Кохання по-дорослому / This Is 40 (2012) 720p Ukr/Eng


Кохання по-дорослому / This Is 40 (2012) 720p Ukr/Eng
«Такий типу сіквел до «Трішки вагітної»»

Жанр: комедія
Країна: США

Кінокомпанія: Universal Pictures
Режисер: Джадд Апатоу / Judd Apatow
Актори: Пол Радд / Paul Rudd, Леслі Манн / Leslie Mann, Мауд Апатоу / Maude Apatow, Іріс Апатоу / Iris Apatow, Джейсон Сеґел / Jason Segel, Меґан Фокс / Megan Fox та інші

Сюжет:
Чергова комедія Джудд Апатоу, яка являє собою фільм-розгляд що робити, коли тобі стукнуло 40. Одружена пара переживає кризу середнього віку, що в підсумку виливається і в проблеми спільного життя. Але, любов, яка колись горіла між головними героями стрічки, повинна спалахнути знову, принісши з собою не тільки різноманітність в житті, а й нові інтереси і бажання.

Рейтинг MPAA: R - особам до 17 років обов'язкова присутність батьків або дорослого опікуна
Вікова категорія: 16+
Тривалість: 02:13:45
Якість:
Відео:
кодек:
розмір кадру: 1280х534
бітрейт: 4435 кб/с

Аудіо #1:
мова: українська
переклад: багатоголосий закадровий
кодек: 2.0
бітрейт: 192 кб/с

Аудіо #2:
мова: англійська
переклад: оригінал
кодек: 5.1
бітрейт: 1536 кб/с
Info
Код:
General
Unique ID                      : 173712027729218543781566361665791644892 (0x82AFB8371373862CAE3D90D8935CD4DC)
Complete name                  : D:\This Is 40 (2012) 720p [ukr, eng] [Hurtom].
Format                         :
Format version                 : Version 4 / Version 2
File size                      : 5.86 GiB
Duration                       : 2h 13mn
Overall bit rate               : 6 271 Kbps
Movie name                     : This Is 40 (2012) - Release for HDCLUB
Encoded date                   : UTC 2017-03-27 16:32:00
Writing application            : mkvmerge v9.3.1 ('Mask Machine') 64bit
Writing library                : libebml v1.3.4 + libmatroska v1.4.5
DURATION                       : 02:13:44.800000000
NUMBER_OF_FRAMES               : 250775
NUMBER_OF_BYTES                : 192595200
_STATISTICS_WRITING_APP        : mkvmerge v9.3.1 ('Mask Machine') 64bit
_STATISTICS_WRITING_DATE_UTC   : 2017-03-27 16:32:00
_STATISTICS_TAGS               : BPS DURATION NUMBER_OF_FRAMES NUMBER_OF_BYTES

Video
ID                             : 1
Format                         : AVC
Format/Info                    : Advanced Video Codec
Format profile                 : [email protected]
Format settings, CABAC         : Yes
Format settings, ReFrames      : 12 frames
Codec ID                       : V_MPEG4/ISO/AVC
Duration                       : 2h 13mn
Bit rate                       : 4 445 Kbps
Width                          : 1 280 pixels
Height                         : 534 pixels
Display aspect ratio           : 2.40:1
Frame rate mode                : Constant
Frame rate                     : 23.976 fps
Color space                    : YUV
Chroma subsampling             : 4:2:0
Bit depth                      : 8 bits
Scan type                      : Progressive
Bits/(Pixel*Frame)             : 0.271
Stream size                    : 4.15 GiB (71%)
Writing library                : core 142 r2431+42 c69a006 tMod [[email protected]:2:0 X86_64]
Encoding settings              : cabac=1 / ref=12 / deblock=1:-3:-3 / analyse=0x3:0x133 / me=umh / subme=10 / psy=1 / fade_compensate=0.00 / psy_rd=1.00:0.00 / mixed_ref=1 / me_range=24 / chroma_me=1 / trellis=2 / 8x8dct=1 / cqm=0 / deadzone=21,11 / fast_pskip=1 / chroma_qp_offset=-2 / threads=12 / lookahead_threads=2 / sliced_threads=0 / nr=0 / decimate=1 / interlaced=0 / bluray_compat=0 / constrained_intra=0 / fgo=0 / bframes=7 / b_pyramid=2 / b_adapt=2 / b_bias=0 / direct=3 / weightb=1 / open_gop=0 / weightp=2 / keyint=250 / keyint_min=23 / scenecut=40 / intra_refresh=0 / rc_lookahead=60 / rc=crf / mbtree=0 / crf=16.0000 / qcomp=0.65 / qpmin=0:0:0 / qpmax=69:69:69 / qpstep=4 / vbv_maxrate=62500 / vbv_bufsize=78125 / crf_max=0.0 / nal_hrd=none / filler=0 / ip_ratio=1.30 / pb_ratio=1.20 / aq=4:0.85 / aq-sensitivity=10.00 / aq-factor=1.00:1.00:1.00 / aq2=0 / aq3=0
Language                       : English
Default                        : Yes
Forced                         : No
Color range                    : Limited
Matrix coefficients            : BT.709
DURATION                       : 02:13:44.809000000
NUMBER_OF_FRAMES               : 192403
NUMBER_OF_BYTES                : 4581657433
_STATISTICS_WRITING_APP        : mkvmerge v9.3.1 ('Mask Machine') 64bit
_STATISTICS_WRITING_DATE_UTC   : 2017-03-27 16:32:00
_STATISTICS_TAGS               : BPS DURATION NUMBER_OF_FRAMES NUMBER_OF_BYTES

Audio #1
ID                             : 2
Format                         : AC-3
Format/Info                    : Audio Coding 3
Mode extension                 : CM (complete main)
Format settings, Endianness    : Big
Codec ID                       : A_AC3
Duration                       : 2h 13mn
Bit rate mode                  : Constant
Bit rate                       : 192 Kbps
Channel(s)                     : 2 channels
Channel positions              : Front: L R
Sampling rate                  : 48.0 KHz
Compression mode               : Lossy
Stream size                    : 184 MiB (3%)
Language                       : Ukrainian
Default                        : Yes
Forced                         : No

Audio #2
ID                             : 3
Format                         :
Format/Info                    : Digital Theater Systems
Mode                           : 16
Format settings, Endianness    : Big
Codec ID                       : A_DTS
Duration                       : 2h 13mn
Bit rate mode                  : Constant
Bit rate                       : 1 509 Kbps
Channel(s)                     : 6 channels
Channel positions              : Front: L C R, Side: L R, LFE
Sampling rate                  : 48.0 KHz
Bit depth                      : 24 bits
Compression mode               : Lossy
Stream size                    : 1.41 GiB (24%)
Language                       : English
Default                        : No
Forced                         : No

Menu
00:00:00.000                   : :00:00:00.000
00:06:54.414                   : :00:06:54.414
00:14:58.189                   : :00:14:58.189
00:21:22.740                   : :00:21:22.740
00:26:22.247                   : :00:26:22.247
00:33:26.963                   : :00:33:26.963
00:40:13.077                   : :00:40:13.077
00:48:30.407                   : :00:48:30.407
00:56:31.179                   : :00:56:31.179
01:01:34.733                   : :01:01:34.733
01:07:10.526                   : :01:07:10.526
01:14:37.348                   : :01:14:37.348
01:24:33.193                   : :01:24:33.193
01:31:19.182                   : :01:31:19.182
01:38:07.715                   : :01:38:07.715
01:46:57.870                   : :01:46:57.870
01:52:14.937                   : :01:52:14.937
01:57:59.656                   : :01:57:59.656
02:04:08.232                   : :02:04:08.232
02:08:37.919                   : :02:08:37.919
Скріншоти (0+)
Скріншоти (18+)

Джерело: &
Особиста оцінка: 0 - не дивився
Висловлюю подяку за доріжку пану Gelios і за запис slavik_v_z


 Трекер:    Зареєстрований   

Завантажити / скачати фільм українською



відео для новачків



 Зареєстрований:   2017-03-27 19:58
 Розмір:   5.86 GB 
 Оцінка фільму:   4.2/10 (Голосів: 18)
   
Інші релізи
DaVinci.ua 
VIP


З нами з: 30.12.11
Востаннє: 10.10.17
Повідомлень: 1258

2017-03-26 11:17  
Ось тут присутня сира звукова доріжка до цього фільму! https://fex.net/935940249993
bot 
робот


З нами з: 30.09.07
Востаннє: 26.05.05
Повідомлень: 17723

2017-03-27 19:52  
Тему перенесено з Анонси релізів до форуму Фільми в HD


Patriot_ukr

OL3X 
VIP


З нами з: 25.11.15
Востаннє: 22.10.17
Повідомлень: 409

2017-03-27 21:43  
Варто дивитись? Комедії по типу туалетного гумору "сусідів" не терплю, але тут по опису ніби непогано має бути.
Sllavko 
Свій


З нами з: 10.06.12
Востаннє: 12.10.17
Повідомлень: 93

2017-03-27 21:58  
Завантажили: [ 0 ], а Оцінка фільму: 7/10 (Голосів: 3)

Чудеса прямо.

Sllavko 
Свій


З нами з: 10.06.12
Востаннє: 12.10.17
Повідомлень: 93

2017-03-28 12:14  
можна глянути..
правда, на гуртом є SD Unrated версія.. там є кумедні нецензуровані моменти, яких тут немає.

11FrYkT 
Модератор відео


З нами з: 20.02.11
Востаннє: 21.10.17
Повідомлень: 3976

2017-03-30 22:11  
Anonymous написано:

Info
Код:
TOMORROW

Уже 30.03

Anonymous 







2017-03-31 15:08  
11FrYkT
Точно, забув

Ваш часовий пояс: GMT + 2 Години

Нова тема   Відповісти