За кров до перемоги / Bleed for This (2016) AVC

Нові коментарі

Нова тема   Відповісти
Автор Повідомлення
Anonymous 







2017-03-25 22:40  
За кров до перемоги / Bleed for This (2016) AVC


За кров до перемоги / Bleed for This (2016) AVC
Альтернативний постер
Жанр: біографічний, драма, спорт
Країна: США

Кінокомпанія: Verdi Productions, Magna Entertainment, Bruce Cohen Production
Режисер: Бен Янґер / Ben Younger
Актори: Майлз Теллер / Miles Teller, Аарон Екгарт / Aaron Eckhart, Кеті Саґал / Katey Sagal, Кіаран Гайндс / Ciarán Hinds, Тед Левайн / Ted Levine, Джордан Ґелбер / Jordan Gelber, Аманда Клейтон / Amanda Clayton, Деніел Саулі / Daniel Sauli, Крістін Єванґеліста / Christine Evangelista, Тіна Каскіані / Tina Casciani

Сюжет:
Вінні Пацієнца - один з найвидатніших чемпіонів з боксу. Молодий, яскравий, безрозсудний... Його називали Пазманським дияволом. Його кар'єра була на самісінькій вершині, але страшна аварія відразу зруйнувала всі плани. Лікарі казали, що він більше ніколи не зможе ходити. Однак Вінні вирішив повернутися на ринг за будь-що.

Рейтинг MPAA: R - особам до 17 років обов'язкова присутність батьків або дорослого опікуна
Вікова категорія: 16+
Тривалість: 01:57:03
Якість: AVC (Bleed for This (2016) Remux 1080p (ExKinoRay))
Відео:
кодек:
розмір кадру: 1132x474 (2.40:1)
бітрейт: 1839 кб/с

Аудіо:
мова: українська
переклад: багатоголосий закадровий
кодек: 2.0 (стерео)
бітрейт: 192 кб/с
Info
Код:
General
Unique ID                      : 254321377392465034635835673532843452687 (0xBF5483FFCA3CF398A85B1CD540A0690F)
Complete name                  : D:\Bleed for This (2016) AVC [ukr] [Hurtom].
Format                         :
Format version                 : Version 4 / Version 2
File size                      : 1.66 GiB
Duration                       : 1h 57mn
Overall bit rate               : 2 031 Kbps
Encoded date                   : UTC 2017-03-25 18:18:15
Writing application            : mkvmerge v9.3.1 ('Mask Machine') 64bit
Writing library                : libebml v1.3.4 + libmatroska v1.4.5
Attachements                   : cover.jpg
DURATION                       : 01:57:03.008000000
NUMBER_OF_FRAMES               : 219469
NUMBER_OF_BYTES                : 168552192
_STATISTICS_WRITING_APP        : mkvmerge v9.3.1 ('Mask Machine') 64bit
_STATISTICS_WRITING_DATE_UTC   : 2017-03-25 18:18:15
_STATISTICS_TAGS               : BPS DURATION NUMBER_OF_FRAMES NUMBER_OF_BYTES

Video
ID                             : 1
Format                         : AVC
Format/Info                    : Advanced Video Codec
Format profile                 : [email protected]
Format settings, CABAC         : Yes
Format settings, ReFrames      : 10 frames
Codec ID                       : V_MPEG4/ISO/AVC
Duration                       : 1h 57mn
Bit rate                       : 1 839 Kbps
Width                          : 1 132 pixels
Height                         : 474 pixels
Display aspect ratio           : 2.40:1
Frame rate mode                : Constant
Frame rate                     : 23.976 fps
Color space                    : YUV
Chroma subsampling             : 4:2:0
Bit depth                      : 8 bits
Scan type                      : Progressive
Bits/(Pixel*Frame)             : 0.143
Stream size                    : 1.47 GiB (89%)
Writing library                : core 148 r2638 7599210
Encoding settings              : cabac=1 / ref=10 / deblock=1:-3:-2 / analyse=0x3:0x133 / me=umh / subme=10 / psy=1 / psy_rd=1.00:0.00 / mixed_ref=1 / me_range=32 / chroma_me=1 / trellis=2 / 8x8dct=1 / cqm=0 / deadzone=21,11 / fast_pskip=0 / chroma_qp_offset=-2 / threads=6 / lookahead_threads=1 / sliced_threads=0 / nr=0 / decimate=1 / interlaced=0 / bluray_compat=0 / constrained_intra=0 / bframes=10 / b_pyramid=2 / b_adapt=2 / b_bias=0 / direct=1 / weightb=1 / open_gop=0 / weightp=2 / keyint=250 / keyint_min=23 / scenecut=40 / intra_refresh=0 / rc=2pass / mbtree=0 / bitrate=1839 / ratetol=1.0 / qcomp=0.65 / qpmin=0 / qpmax=69 / qpstep=4 / cplxblur=20.0 / qblur=0.5 / ip_ratio=1.40 / pb_ratio=1.30 / aq=3:0.90
Language                       : English
Default                        : Yes
Forced                         : No
DURATION                       : 01:57:02.975000000
NUMBER_OF_FRAMES               : 168383
NUMBER_OF_BYTES                : 1612700834
_STATISTICS_WRITING_APP        : mkvmerge v9.3.1 ('Mask Machine') 64bit
_STATISTICS_WRITING_DATE_UTC   : 2017-03-25 18:18:15
_STATISTICS_TAGS               : BPS DURATION NUMBER_OF_FRAMES NUMBER_OF_BYTES

Audio
ID                             : 2
Format                         : AC-3
Format/Info                    : Audio Coding 3
Mode extension                 : CM (complete main)
Format settings, Endianness    : Big
Codec ID                       : A_AC3
Duration                       : 1h 57mn
Bit rate mode                  : Constant
Bit rate                       : 192 Kbps
Channel(s)                     : 2 channels
Channel positions              : Front: L R
Sampling rate                  : 48.0 KHz
Compression mode               : Lossy
Stream size                    : 161 MiB (9%)
Language                       : Ukrainian
Default                        : Yes
Forced                         : No

Menu
00:00:00.000                   : en:00:00:00.000
00:05:14.439                   : en:00:05:14.439
00:10:26.918                   : en:00:10:26.918
00:15:01.943                   : en:00:15:01.943
00:20:58.674                   : en:00:20:58.674
00:26:32.216                   : en:00:26:32.216
00:33:33.511                   : en:00:33:33.511
00:41:22.188                   : en:00:41:22.188
00:49:25.171                   : en:00:49:25.171
00:54:04.324                   : en:00:54:04.324
00:58:46.690                   : en:00:58:46.690
01:03:30.932                   : en:01:03:30.932
01:10:14.502                   : en:01:10:14.502
01:14:14.950                   : en:01:14:14.950
01:20:23.986                   : en:01:20:23.986
01:25:27.039                   : en:01:25:27.039
01:31:45.583                   : en:01:31:45.583
01:37:03.067                   : en:01:37:03.067
01:44:24.425                   : en:01:44:24.425
01:50:24.868                   : en:01:50:24.868
Скріншоти











g

Джерело: &
Особиста оцінка: 0 - не дивився
Висловлюю подяку за доріжку пану Gelios


 Трекер:    Зареєстрований   

Завантажити / скачати фільм українською



відео для новачків



 Зареєстрований:   2017-03-25 22:40
 Розмір:   1.66 GB 
 Оцінка фільму:   5.3/10 (Голосів: 21)
   
Інші релізи
Arcon Sarkel 
Забанено
Забанено


З нами з: 04.03.16
Востаннє: 18.04.17
Повідомлень: 96

2017-03-26 13:19  
Фільм як і багато інших, буденний.
Хто зробив банер? Банер має помилку!!! (навіть код кольору узяли з клону рутрекєр.орг)
Для шанувальників рутрекєр.орг під час війни ua=ru:
якомога=как можно
Залишайтеся на роздачі якомога довше = Оставайтесь на раздаче как можно дольше

Anonymous 







2017-03-26 16:18  
Arcon Sarkel
Я це бачив, але банер робив не я

Ваш часовий пояс: GMT + 2 Години

Нова тема   Відповісти