Лікар: учень Авіценни / The Physician (2013) Remux 1080p Ukr/Eng | Sub Eng

Нові коментарі

Нова тема   Відповісти
Автор Повідомлення
famous37 
Відео Гуртом - фільмокрай
Відео Гуртом - фільмокрай


З нами з: 16.11.08
Востаннє: 21.10.18
Повідомлень: 875

2017-03-25 20:12  
Лікар: учень Авіценни / The Physician (2013) Remux 1080p Ukr/Eng | Sub Eng

Лікар: учень Авіценни / The Physician (2013) Remux 1080p Ukr/Eng | Sub Eng


Жанр: пригодницький, драма
Країна: Німеччина



Кінокомпанія: UFA Cinema, ARD Degeto Film, Beta Cinema
Режисер: Філіп Штельцль
Актори: Том Пейн, Бен Кінґслі, Ема Ріґбі, Стеллан Скарсґард, Олів'є Мартінес, Еліас Ембарек, Майкл Джібсон, Стенлі Таунсенд, Майкл Маркус Морґан, Адам Томас Райт

Сюжет:
Англія, XI століття. Мати десятирічного Роба Коула помирає у страшних муках: ніхто не знає ні природи її хвороби, ні ліки проти неї. Маленький Роб, вражений до глибини душі, у що б то не стало прагне розгадати цю таємницю. Йому судилося пройти довгий шлях, від Англії до Персії, його вчителями стають спочатку звичайний шарлатан Барбер, а потім - великий лікар Авіценна. Мудрий вчитель бачить в Робі незвичайний талант до медицини, але радить йому не поспішати робити речі, які не відповідають віку. Але Роб ні перед чим не зупиняється у своєму бажанні навчитися рятувати людей від смерті.


Тривалість: 02:35:06
Якість: Remux 1080p [ESP-Transfer]
Відео:
кодек:
розмір кадру: 1920х1080
бітрейт: 24,7 мб/с

Аудіо # 1:
мова: українська
переклад: професійний дубльований
кодек: -HD MA 5.1
бітрейт: 3616 кб/с

Аудіо # 2:
мова: англійська
переклад: оригінал
кодек: -HD MA 5.1
бітрейт: 1920 кб/с

Субтитри:
мова: англійська
тип: пререндерні
формат: *.pgs
Info
General
Unique ID : 173195609272206085783451338712380599648 (0x824C42D1C5BE450C8406F4F91CCFED60)
Complete name : D:\Фільми\Драма\The Physician (2013) Remux 1080p [Ukr,Eng] [sub Eng] by famous37 [Hurtom].
Format :
Format version : Version 4 / Version 2
File size : 32.9 GiB
Duration : 2 h 35 min
Overall bit rate mode : Variable
Overall bit rate : 30.3 Mb/s
Movie name : The Physician (2013) Remux 1080p [Ukr,Eng] [sub Eng] by famous37 [Hurtom]
Encoded date : UTC 2017-03-26 20:24:31
Writing application : v9.8.0 ('Kuglblids') 64bit
Writing library : libebml v1.3.4 + v1.4.5

Video
ID : 1
Format : AVC
Format/Info : Advanced Video Codec
Format profile : [email protected]
Format settings, CABAC : Yes
Format settings, ReFrames : 4 frames
Codec ID : V_MPEG4/ISO/AVC
Duration : 2 h 35 min
Bit rate mode : Variable
Bit rate : 24.7 Mb/s
Maximum bit rate : 30.0 Mb/s
Width : 1 920 pixels
Height : 1 080 pixels
Display aspect ratio : 16:9
Frame rate mode : Constant
Frame rate : 24.000 FPS
Standard : NTSC
Color space : YUV
Chroma subsampling : 4:2:0
Bit depth : 8 bits
Scan type : Progressive
Bits/(Pixel*Frame) : 0.497
Stream size : 26.8 GiB (82%)
Language : English
Default : Yes
Forced : No
Color range : Limited
Color primaries : BT.709
Transfer characteristics : BT.709
Matrix coefficients : BT.709

Audio #1
ID : 2
Format :
Format/Info : Digital Theater Systems
Format profile : MA / Core
Mode : 16
Format settings, Endianness : Big
Codec ID : A_DTS
Duration : 2 h 35 min
Bit rate mode : Variable / Constant
Bit rate : 3 616 kb/s / 1 509 kb/s
Channel(s) : 6 channels
Channel positions : Front: L C R, Side: L R, LFE
Sampling rate : 48.0 kHz
Frame rate : 93.750 FPS (512 spf)
Bit depth : 24 bits
Compression mode : Lossless / Lossy
Stream size : 3.92 GiB (12%)
Language : Ukrainian
Default : Yes
Forced : Yes

Audio #2
ID : 3
Format :
Format/Info : Digital Theater Systems
Format profile : MA / Core
Mode : 16
Format settings, Endianness : Big
Codec ID : A_DTS
Duration : 2 h 35 min
Bit rate mode : Variable / Constant
Bit rate : 1 920 kb/s / 1 509 kb/s
Channel(s) : 6 channels
Channel positions : Front: L C R, Side: L R, LFE
Sampling rate : 48.0 kHz
Frame rate : 93.750 FPS (512 spf)
Bit depth : 16 bits
Compression mode : Lossless / Lossy
Stream size : 2.11 GiB (6%)
Language : English
Default : No
Forced : No

Text
ID : 4
Format : PGS
Muxing mode : zlib
Codec ID : S_HDMV/PGS
Codec ID/Info : Picture based subtitle format used on BDs/HD-DVDs
Duration : 2 h 28 min
Bit rate : 12.5 kb/s
Count of elements : 2744
Stream size : 13.3 MiB (0%)
Language : English
Default : Yes
Forced : No
Скріншоти
Джерело:
Особиста оцінка: 10 - без зайвих вагань рекомендую всім!

Завантажуйте і не забувайте про коментарі та подяки, адже на цьому будується наше спілкування
і не дає довести процес обміну фільмами до бездушного автоматизму!!!

Будь ласка, залишайтеся на роздачі!
Діліться з ближніми!




Приємного перегляду! =)


Золотий реліз (завантажене не впливає на рейтинг)
 Трекер:    Зареєстрований   

Завантажити / скачати фільм українською



відео для новачків



 Зареєстрований:   2017-04-02 19:47
 Розмір:   32.86 GB 
 Оцінка фільму:   9.8/10 (Голосів: 10)
   
Noviy Geroy 
Свій


З нами з: 21.08.16
Востаннє: 20.10.18
Повідомлень: 142

2017-03-30 22:13  
О, так, я колись коли дивився цей фільм, потім на уроках спав, бо півночі йшов
bot 
робот


З нами з: 30.09.07
Востаннє: 26.05.05
Повідомлень: 19984

2017-04-02 19:47  
Тему перенесено з Анонси релізів до форуму Фільми в HD


famous37

uldash 
Новенький


З нами з: 16.09.13
Востаннє: 21.10.18
Повідомлень: 6

2017-04-03 23:48  
Сервус, шановні. Коли буде роздача, просто цікаво. Заздалегідь, гречно дякую.
famous37 
Відео Гуртом - фільмокрай
Відео Гуртом - фільмокрай


З нами з: 16.11.08
Востаннє: 21.10.18
Повідомлень: 875

2017-04-04 06:48  
uldash, сьогодні після обіду. Комп не умикав. Перепрошую.
uldash 
Новенький


З нами з: 16.09.13
Востаннє: 21.10.18
Повідомлень: 6

2017-04-04 21:00  
famous37
Друже famous37, дякую. Скачав та залишаюсь на роздачі.

Skrunja 
Свій


З нами з: 13.06.12
Востаннє: 20.10.18
Повідомлень: 88

2017-04-05 00:31  
Noviy Geroy написано:
О, так, я колись коли дивився цей фільм, потім на уроках спав, бо півночі йшов

Вкажіть будь ласка тривалість фільму в описі.

Electroz 
Відео Гуртом - підтримка та поширення
Відео Гуртом - підтримка та поширення


З нами з: 18.09.14
Востаннє: 22.10.18
Повідомлень: 3034

2017-04-05 00:36  
Skrunja написано:
тривалість фільму в описі

famous37 написано:
Тривалість: 02:35:06

380983801076 
Поважний учасник


З нами з: 30.03.12
Востаннє: 22.10.18
Повідомлень: 153

2018-09-18 00:04  
Можна трохи газку? Бо роздає 2 людини, а нічого не качає.
Wensun 
Свій


З нами з: 20.01.09
Востаннє: 19.10.18
Повідомлень: 109

2018-10-19 01:08  
настільки круте кіно ! як я його тоді пропустив ! кіно розміром з життя.
Ваш часовий пояс: GMT + 2 Години

Нова тема   Відповісти