Фантастичні звірі і де їх шукати / Fantastic Beasts and Where to Find Them (2016) 1080p 3D [Half OverUnder] Ukr/Eng | Sub Eng

Нові коментарі

Нова тема   Відповісти
Автор Повідомлення
Anonymous 







2017-03-24 21:26  
Фантастичні звірі і де їх шукати / Fantastic Beasts and Where to Find Them (2016) 1080p 3D [Half OverUnder] Ukr/Eng | Sub Eng

Альтернативні постери






повнорозмірні зображення відкриються по кліку (з натиснутим CTRL чи кліком середньою кнопкою мишки - у новій вкладці)


Жанр: фентезі, пригодницький, сімейний
Країна: США, Велика Британія

Оскар за найкращий дизайн костюмів



Кінокомпанія: Warner Bros., Heyday Films
Режисер: Девід Єйтс / David Yates
Актори: Едді Редмейн / Eddie Redmayne, Кетрін Вотерстон / Katherine Waterston, Ден Фоґлер / Dan Fogler, Елісон Судол / Alison Sudol, Колін Фаррелл / Colin Farrell, Кармен Еджоґо / Carmen Ejogo, Езра Міллер / Ezra Miller, Саманта Мортон / Samantha Morton, Рон Перлмен / Ron Perlman, Джон Войт / Jon Voight, Домінік Тіппер / Dominique Tipper, Джонні Депп / Johnny Depp та інші

Сюжет:
Нью-Йорк 20-х років ХХ століття. Головний герой – Ньют Скамандер, який приїхав в місто спеціально для того, щоб відвідати таємну спільноту чарівниць та чарівників. Він – відомий дослідник і письменник, а підручники його авторства входять до обов'язкової програми Гоґвортсу – знаменитої школи магії. Саме про підручник "Фантастичні звірі і де їх шукати" нам розповідає фільм. Ця книга є переліком фантастичних тварин і містить їх опис. Пориньте у цей чарівний світ!

Офіційний український трейлер


Рейтинг MPAA: PG-13
Вікова категорія: 9+

Тривалість: 02:12:52
Якість: 1080p 3D [Ash61]
Відео:
кодек:
розмір кадру: 1920 х 1080
бітрейт: 13,7 Мб/с
формат 3D: Half OverUnder / Вертикальна анаморфна стереопара
порядок ракурсів: лівий ракурс перший
Відео для перегляду на 3D обладнанні!

Аудіо # 1:
мова: українська
переклад: професійний дубльований | Postmodern
кодек: 2.0 (стерео)
бітрейт: 192 кб/с
Інформація про дубляж

Переклад: Олег Колесніков
Режисер дубляжу: Анна Пащенко
Звукорежисер: Олександр Мостовенко
Ролі дублювали: Олександр Погребняк, Юлія Перенчук, Сергій Солопай, Наталія Денисенко, Андрій Твердак, Олена Узлюк, Андрій Соболєв, Наталія Ярошенко, Борис Георгієвський та інші.
Фільм дубльовано компанією Postmodern

Аудіо # 2:
мова: англійська
переклад: оригінал
кодек: 5.1
бітрейт: 640 кб/с

Субтитри # 1:
мова: українська (форсовані)
тип: програмні (м'які)
формат: *.srt

Субтитри # 2-3:
мова: англійська (повні, SDH)
тип: програмні (м'які)
формат: *.srt
Info
Код:
Format                      :
Format version              : Version 4 / Version 2
File size                   : 13.5 GiB
Duration                    : 2 h 12 min
Overall bit rate            : 14.6 Mb/s

Video
ID                          : 1
Format                      : AVC
Format/Info                 : Advanced Video Codec
Format profile              : [email protected]
Format settings, CABAC      : Yes
Format settings, ReFrames   : 4 frames
Codec ID                    : V_MPEG4/ISO/AVC
Duration                    : 2 h 12 min
Bit rate                    : 13.7 Mb/s
Width                       : 1 920 pixels
Height                      : 1 080 pixels
Display aspect ratio        : 16:9
Frame rate mode             : Constant
Frame rate                  : 23.976 (24000/1001) FPS
Color space                 : YUV
Chroma subsampling          : 4:2:0
Bit depth                   : 8 bits
Scan type                   : Progressive
Bits/(Pixel*Frame)          : 0.276
Stream size                 : 12.7 GiB (94%)
Title                       : Фантастичні звірі і де їх шукати / Fantastic Beasts and Where to Find Them (2016) 1080p 3D [Half OverUnder] by Ash61
Writing library             : core 146 r2538 121396c
Encoding settings           : cabac=1 / ref=4 / deblock=1:-3:-3 / analyse=0x3:0x113 / me=umh / subme=10 / psy=1 / psy_rd=1.00:0.00 / mixed_ref=1 / me_range=32 / chroma_me=1 / trellis=2 / 8x8dct=1 / cqm=0 / deadzone=21,11 / fast_pskip=1 / chroma_qp_offset=-2 / threads=12 / lookahead_threads=3 / sliced_threads=0 / nr=0 / decimate=1 / interlaced=0 / bluray_compat=0 / constrained_intra=0 / bframes=10 / b_pyramid=2 / b_adapt=2 / b_bias=0 / direct=3 / weightb=1 / open_gop=0 / weightp=2 / keyint=250 / keyint_min=23 / scenecut=40 / intra_refresh=0 / rc_lookahead=60 / rc=crf / mbtree=0 / crf=16.8 / qcomp=0.70 / qpmin=0 / qpmax=69 / qpstep=4 / vbv_maxrate=40000 / vbv_bufsize=30000 / crf_max=0.0 / nal_hrd=none / filler=0 / frame-packing=4 / ip_ratio=1.40 / pb_ratio=1.30 / aq=1:0.70
Language                    : English
Default                     : Yes
Forced                      : No

Audio #1
ID                          : 2
Format                      : AC-3
Format/Info                 : Audio Coding 3
Format settings, Endianness : Big
Codec ID                    : A_AC3
Duration                    : 2 h 12 min
Bit rate mode               : Constant
Bit rate                    : 192 kb/s
Channel(s)                  : 2 channels
Channel positions           : Front: L R
Sampling rate               : 48.0 kHz
Frame rate                  : 31.250 FPS (1536 spf)
Bit depth                   : 16 bits
Compression mode            : Lossy
Stream size                 : 182 MiB (1%)
Title                       : Dub [Postmodern, iTunes] 2.0 192 Kbps [Hurtom]
Language                    : Ukrainian
Service kind                : Complete Main
Default                     : Yes
Forced                      : No

Audio #2
ID                          : 3
Format                      : AC-3
Format/Info                 : Audio Coding 3
Format settings, Endianness : Big
Codec ID                    : A_AC3
Duration                    : 2 h 12 min
Bit rate mode               : Constant
Bit rate                    : 640 kb/s
Channel(s)                  : 6 channels
Channel positions           : Front: L C R, Side: L R, LFE
Sampling rate               : 48.0 kHz
Frame rate                  : 31.250 FPS (1536 spf)
Bit depth                   : 16 bits
Compression mode            : Lossy
Stream size                 : 608 MiB (4%)
Title                       : Original, 5.1 640 Kbps
Language                    : English
Service kind                : Complete Main
Default                     : No
Forced                      : No

Text #1
ID                          : 4
Format                      : UTF-8
Codec ID                    : S_TEXT/UTF8
Codec ID/Info               : UTF-8 Plain Text
Duration                    : 2 h 12 min
Bit rate                    : 2 b/s
Count of elements           : 47
Stream size                 : 2.67 KiB (0%)
Title                       : Ukr Forced
Language                    : Ukrainian
Default                     : Yes
Forced                      : Yes

Text #2
ID                          : 5
Format                      : UTF-8
Codec ID                    : S_TEXT/UTF8
Codec ID/Info               : UTF-8 Plain Text
Duration                    : 2 h 1 min
Bit rate                    : 41 b/s
Count of elements           : 1303
Stream size                 : 37.1 KiB (0%)
Title                       : Eng Full
Language                    : English
Default                     : No
Forced                      : No

Text #3
ID                          : 6
Format                      : UTF-8
Codec ID                    : S_TEXT/UTF8
Codec ID/Info               : UTF-8 Plain Text
Duration                    : 2 h 2 min
Bit rate                    : 48 b/s
Count of elements           : 1598
Stream size                 : 43.3 KiB (0%)
Title                       : Eng SDH
Language                    : English
Default                     : No
Forced                      : No

Menu
00:00:00.000                : :1
00:08:40.270                : :2
00:18:55.718                : :3
00:28:23.660                : :4
00:38:34.187                : :5
00:48:08.594                : :6
00:58:19.246                : :7
01:09:14.692                : :8
01:17:26.392                : :9
01:29:33.660                : :10
01:38:02.085                : :11
01:50:27.871                : :12
01:59:04.471                : :13
02:04:12.820                : :14



Підтримати купівлю інших фільмів можна тут



Джерело: &


 Трекер:    Зареєстрований   

Завантажити / скачати фільм українською



відео для новачків



 Зареєстрований:   2017-03-24 22:28
 Розмір:   13.52 GB 
 Оцінка фільму:   5.2/10 (Голосів: 22)
   
Anonymous 







2017-03-24 23:19  
Прохання до любителів 3D подбати про сідування цього релізу, бо я його довго не зберігатиму.
His_Infernal_Majesty 
Новенький


З нами з: 01.12.14
Востаннє: 22.10.17
Повідомлень: 23

2017-03-26 16:47  
Так собі... Очікував більшого, а в результаті- ледве довивився
Ваш часовий пояс: GMT + 2 Години

Нова тема   Відповісти