Фантастичні звірі і де їх шукати / Fantastic Beasts and Where to Find Them (2016) 1080p 3D [Half OverUnder] Ukr/Eng | Sub Eng

Нові коментарі

Нова тема   Відповісти
Автор Повідомлення
Anonymous 







2017-03-24 21:26  
Фантастичні звірі і де їх шукати / Fantastic Beasts and Where to Find Them (2016) 1080p 3D [Half OverUnder] Ukr/Eng | Sub Eng

Альтернативні постери






повнорозмірні зображення відкриються по кліку (з натиснутим CTRL чи кліком середньою кнопкою мишки - у новій вкладці)


Жанр: фентезі, пригодницький, сімейний
Країна: США, Велика Британія

Оскар за найкращий дизайн костюмів



Кінокомпанія: Warner Bros., Heyday Films
Режисер: Девід Єйтс / David Yates
Актори: Едді Редмейн / Eddie Redmayne, Кетрін Вотерстон / Katherine Waterston, Ден Фоґлер / Dan Fogler, Елісон Судол / Alison Sudol, Колін Фаррелл / Colin Farrell, Кармен Еджоґо / Carmen Ejogo, Езра Міллер / Ezra Miller, Саманта Мортон / Samantha Morton, Рон Перлмен / Ron Perlman, Джон Войт / Jon Voight, Домінік Тіппер / Dominique Tipper, Джонні Депп / Johnny Depp та інші

Сюжет:
Нью-Йорк 20-х років ХХ століття. Головний герой – Ньют Скамандер, який приїхав в місто спеціально для того, щоб відвідати таємну спільноту чарівниць та чарівників. Він – відомий дослідник і письменник, а підручники його авторства входять до обов'язкової програми Гоґвортсу – знаменитої школи магії. Саме про підручник "Фантастичні звірі і де їх шукати" нам розповідає фільм. Ця книга є переліком фантастичних тварин і містить їх опис. Пориньте у цей чарівний світ!

Офіційний український трейлер


Рейтинг MPAA: PG-13
Вікова категорія: 9+

Тривалість: 02:12:52
Якість: 1080p 3D [ріп від Ash61]
Відео:
кодек:
розмір кадру: 1920 х 1080
бітрейт: 13,7 Мб/с
формат 3D: Half OverUnder / Вертикальна анаморфна стереопара
порядок ракурсів: лівий ракурс перший
Відео для перегляду на 3D обладнанні!

Аудіо # 1:
мова: українська
переклад: професійний дубльований | Postmodern
кодек: 5.1
бітрейт: 384 кб/с
Інформація про дубляж

Переклад: Олег Колесніков
Режисер дубляжу: Анна Пащенко
Звукорежисер: Олександр Мостовенко
Ролі дублювали: Олександр Погребняк, Юлія Перенчук, Сергій Солопай, Наталія Денисенко, Андрій Твердак, Олена Узлюк, Андрій Соболєв, Наталія Ярошенко, Борис Георгієвський та інші.
Фільм дубльовано компанією Postmodern
Аудіо # 2:
мова: українська
переклад: професійний дубльований | Postmodern
кодек: 2.0 (стерео)
бітрейт: 192 кб/с

Аудіо # 3:
мова: англійська
переклад: оригінал
кодек: 5.1
бітрейт: 640 кб/с

Субтитри # 1:
мова: українська (примусові)
тип: програмні (м'які)
формат: *.srt

Субтитри # 2-3:
мова: англійська (повні, SDH)
тип: програмні (м'які)
формат: *.srt
Info
Код:

Complete name               : Fantastic Beasts and Where to Find Them (2016) [Ukr,Eng sub.Eng] 1080p 3D HalfOU [Hurtom].
Format                      :
Format version              : Version 4
File size                   : 13.9 GiB
Duration                    : 2 h 12 min
Overall bit rate            : 15.0 Mb/s
Movie name                  : Фантастичні звірі і де їх шукати / Fantastic Beasts and Where to Find Them (2016) [Ukr,Eng sub.Eng] 1080p 3D halfOU [Hurtom]
Released date               : 2016
Encoded date                : UTC 2019-12-24 12:30:18
Writing application         : v41.0.0 ('Smarra') 64-bit
Writing library             : libebml v1.3.9 + v1.5.2
Cover                       : Yes
Comment                     : http://www.imdb.com/title/tt3183660/
Attachments                 : cover.jpg
ARTIST                      : Едді Редмейн / Eddie Redmayne, Кетрін Вотерстон / Katherine Waterston, Ден Фоґлер / Dan Fogler, Елісон Судол / Alison Sudol, Колін Фаррелл / Colin Farrell, Кармен Еджоґо / Carmen Ejogo, Езра Міллер / Ezra Miller, Саманта Мортон / Samantha Morton, Рон Перлмен / Ron Perlman, Джон Войт / Jon Voight, Домінік Тіппер / Dominique Tipper, Джонні Депп / Johnny Depp та інші
DIRECTOR                    : Девід Єйтс / David Yates
GENRE                       : фентезі, пригодницький, сімейний
SYNOPSIS                    : Нью-Йорк 20-х років ХХ століття. Головний герой – Ньют Скамандер, який приїхав в місто спеціально для того, щоб відвідати таємну спільноту чарівниць та чарівників. Він – відомий дослідник і письменник, а підручники його авторства входять до обов'язкової програми Гоґвортсу – знаменитої школи магії. Саме про підручник "Фантастичні звірі і де їх шукати" нам розповідає фільм. Ця книга є переліком фантастичних тварин і містить їх опис. Пориньте у цей чарівний світ!
Url                         : https://toloka.to/t80914

Video
ID                          : 1
Format                      : AVC
Format/Info                 : Advanced Video Codec
Format profile              : [email protected]
Format settings             : CABAC / 4 Ref Frames
Format settings, CABAC      : Yes
Format settings, Reference  : 4 frames
Codec ID                    : V_MPEG4/ISO/AVC
Duration                    : 2 h 12 min
Bit rate                    : 13.7 Mb/s
Width                       : 1 920 pixels
Height                      : 1 080 pixels
Display aspect ratio        : 16:9
Frame rate mode             : Constant
Frame rate                  : 23.976 (24000/1001) FPS
Color space                 : YUV
Chroma subsampling          : 4:2:0
Bit depth                   : 8 bits
Scan type                   : Progressive
Bits/(Pixel*Frame)          : 0.276
Stream size                 : 12.7 GiB (92%)
Title                       : Фантастичні звірі і де їх шукати / Fantastic Beasts and Where to Find Them (2016) 1080p 3D [Half OverUnder] by Ash61
Writing library             : core 146 r2538 121396c
Encoding settings           : cabac=1 / ref=4 / deblock=1:-3:-3 / analyse=0x3:0x113 / me=umh / subme=10 / psy=1 / psy_rd=1.00:0.00 / mixed_ref=1 / me_range=32 / chroma_me=1 / trellis=2 / 8x8dct=1 / cqm=0 / deadzone=21,11 / fast_pskip=1 / chroma_qp_offset=-2 / threads=12 / lookahead_threads=3 / sliced_threads=0 / nr=0 / decimate=1 / interlaced=0 / bluray_compat=0 / constrained_intra=0 / bframes=10 / b_pyramid=2 / b_adapt=2 / b_bias=0 / direct=3 / weightb=1 / open_gop=0 / weightp=2 / keyint=250 / keyint_min=23 / scenecut=40 / intra_refresh=0 / rc_lookahead=60 / rc=crf / mbtree=0 / crf=16.8 / qcomp=0.70 / qpmin=0 / qpmax=69 / qpstep=4 / vbv_maxrate=40000 / vbv_bufsize=30000 / crf_max=0.0 / nal_hrd=none / filler=0 / frame-packing=4 / ip_ratio=1.40 / pb_ratio=1.30 / aq=1:0.70
Language                    : English
Default                     : Yes
Forced                      : No

Audio #1
ID                          : 2
Format                      : AC-3
Format/Info                 : Audio Coding 3
Commercial name             : Dolby Digital
Codec ID                    : A_AC3
Duration                    : 2 h 12 min
Bit rate mode               : Constant
Bit rate                    : 384 kb/s
Channel(s)                  : 6 channels
Channel layout              : L R C LFE Ls Rs
Sampling rate               : 48.0 kHz
Frame rate                  : 31.250 FPS (1536 SPF)
Compression mode            : Lossy
Stream size                 : 365 MiB (3%)
Title                       : Dub [Postmodern, iTunes] 5.1 384 Kbps [Hurtom]
Language                    : Ukrainian
Service kind                : Complete Main
Default                     : Yes
Forced                      : Yes

Audio #2
ID                          : 3
Format                      : AC-3
Format/Info                 : Audio Coding 3
Commercial name             : Dolby Digital
Codec ID                    : A_AC3
Duration                    : 2 h 12 min
Bit rate mode               : Constant
Bit rate                    : 192 kb/s
Channel(s)                  : 2 channels
Channel layout              : L R
Sampling rate               : 48.0 kHz
Frame rate                  : 31.250 FPS (1536 SPF)
Compression mode            : Lossy
Stream size                 : 182 MiB (1%)
Title                       : Dub [Postmodern, iTunes] 2.0 192 Kbps [Hurtom]
Language                    : Ukrainian
Service kind                : Complete Main
Default                     : No
Forced                      : No

Audio #3
ID                          : 4
Format                      : AC-3
Format/Info                 : Audio Coding 3
Commercial name             : Dolby Digital
Codec ID                    : A_AC3
Duration                    : 2 h 12 min
Bit rate mode               : Constant
Bit rate                    : 640 kb/s
Channel(s)                  : 6 channels
Channel layout              : L R C LFE Ls Rs
Sampling rate               : 48.0 kHz
Frame rate                  : 31.250 FPS (1536 SPF)
Compression mode            : Lossy
Stream size                 : 608 MiB (4%)
Title                       : Original, 5.1 640 Kbps
Language                    : English
Service kind                : Complete Main
Default                     : No
Forced                      : No

Text #1
ID                          : 5
Format                      : UTF-8
Codec ID                    : S_TEXT/UTF8
Codec ID/Info               : UTF-8 Plain Text
Duration                    : 2 h 12 min
Bit rate                    : 2 b/s
Count of elements           : 42
Stream size                 : 2.50 KiB (0%)
Title                       : Ukr Forced
Language                    : Ukrainian
Default                     : Yes
Forced                      : Yes

Text #2
ID                          : 6
Format                      : UTF-8
Codec ID                    : S_TEXT/UTF8
Codec ID/Info               : UTF-8 Plain Text
Duration                    : 2 h 1 min
Bit rate                    : 41 b/s
Count of elements           : 1303
Stream size                 : 37.1 KiB (0%)
Title                       : Eng Full
Language                    : English
Default                     : No
Forced                      : No

Text #3
ID                          : 7
Format                      : UTF-8
Codec ID                    : S_TEXT/UTF8
Codec ID/Info               : UTF-8 Plain Text
Duration                    : 2 h 2 min
Bit rate                    : 48 b/s
Count of elements           : 1598
Stream size                 : 43.3 KiB (0%)
Title                       : Eng SDH
Language                    : English
Default                     : No
Forced                      : No

Menu
00:00:00.000                : :1
00:08:40.270                : :2
00:18:55.718                : :3
00:28:23.660                : :4
00:38:34.187                : :5
00:48:08.594                : :6
00:58:19.246                : :7
01:09:14.692                : :8
01:17:26.392                : :9
01:29:33.660                : :10
01:38:02.085                : :11
01:50:27.871                : :12
01:59:04.471                : :13
02:04:12.820                : :14


Джерело: &

24.12.2019 реліз оновлено: додано українську доріжку 5.1 , замінено примусові субтитри на офіційні


 Трекер:    Зареєстрований   

Завантажити / скачати фільм українською



відео для новачків



 Зареєстрований:   2019-12-24 15:37
 Розмір:   13.88 GB 
 Оцінка фільму:   5.9/10 (Голосів: 30)
 ЗАЛИШАЙТЕСЬ ЯКОМОГА ДОВШЕ НА РОЗДАЧІ! ЗАВАНТАЖИВ САМ - ДАЙ ЗАВАНТАЖИТИ ІНШИМ!
   
Інші релізи
   Фантастичні звірі і де їх шукати / Fantastic Beasts and Where to Find Them (2016) UHD Remux 2160p 4K HDR H.265 Ukr/Eng | Sub Eng Argentum  13 / 0   50.51 GB   2019-12-24 18:03 
   Фантастичні звірі і де їх шукати / Fantastic Beasts and Where to Find Them (2016) 1080p Ukr/Eng | Sub Eng Electroz  9 / 0   14.47 GB   2019-12-18 11:33 
   Фантастичні звірі і де їх шукати / Fantastic Beasts and Where to Find Them (2016) 720p Ukr/Eng | Sub Eng 11FrYkT  7 / 0   4.31 GB   2019-12-18 11:32 
   Фантастичні звірі і де їх шукати / Fantastic Beasts and Where to Find Them (2016) AVC Ukr/Eng | Sub Eng 11FrYkT  19 / 1   2.36 GB   2019-12-18 11:31 
   Фантастичні звірі і де їх шукати / Fantastic Beasts and Where to Find Them (2016) 1080p H.265 Ukr/Eng | Sub Ukr/Eng igor302  22 / 0   4.88 GB   2018-03-16 23:17 
   Фантастичні звірі і де їх шукати / Fantastic Beasts and Where to Find Them (2016) Ukr 5.1| Sub Uk srtr Bochys  2 / 0   426 MB   2017-11-02 11:56 
   Фантастичні звірі і де їх шукати / Fantastic Beasts and Where to Find Them (2016) DVD9 Eng/Cz/Rus/Ukr | Sub Eng/Cz/Est/Latv/Lith/Port/Rus/Ukr Bochys  3 / 0   6.55 GB   2017-10-30 13:03 
   Фантастичні звірі і де їх шукати / Fantastic Beasts and Where to Find Them (2016) 720p-mini (60 fps) Drool  7 / 1   3.65 GB   2017-03-09 17:13 
   Фантастичні звірі і де їх шукати / Fantastic Beasts and Where to Find Them (2016) Remux 1080p Ukr/Eng | Sub Eng staf777  12 / 0   24.15 GB   2017-03-09 12:45 
   Фантастичні звірі і де їх шукати / Fantastic Beasts and Where to Find Them (2016) Covenant  25 / 0   1.45 GB   2017-03-08 14:50 
   Фантастичні звірі і де їх шукати / Fantastic Beasts and Where to Find Them (2016) Ukr/Eng Gelios  14 / 0   2.18 GB   2017-03-08 12:44 
Anonymous 







2017-03-24 23:19  
Прохання до любителів 3D подбати про сідування цього релізу, бо я його довго не зберігатиму.
His_Infernal_Majesty 
Частий відвідувач


З нами з: 01.12.14
Востаннє: 06.07.20
Повідомлень: 29

2017-03-26 16:47  
Так собі... Очікував більшого, а в результаті- ледве довивився
Anonymous 







2019-12-24 15:37  
Реліз оновлено: додано українську доріжку 5.1 , замінено примусові субтитри на офіційні 
Ваш часовий пояс: GMT + 2 Години

Нова тема   Відповісти