Топ-модель / The Model (2016) Remux 1080p Ukr/Eng

Нові коментарі

Нова тема   Відповісти
Автор Повідомлення
AngryBirdsUA 
Свій


З нами з: 24.02.10
Востаннє: 18.10.17
Повідомлень: 3037

2017-03-24 20:10  
Топ-модель / The Model (2016) Remux 1080p Ukr/Eng

Топ-модель / The Model (2016) Remux 1080p Ukr/Eng


Жанр: мелодрама, драма
Країна: Данія



Кінокомпанія: Film Väst, Zentropa Entertainments
Режисер: Мадс Маттісен
Актори: Марія Палм, Ед Скрейн, Івоннік Мюллер, Вірджіл Бремлі, Еліз Ліссаге, Домінік Оллберн, Алексія Шико, Тьєррі Анкіссе, Марко Ільсьо, Клер Тран

Сюжет:
Емма живе однією лише мрією - стати частиною розкішного світу моди. Дівчина готова піти на все, щоб отримати бажане. Коли Емма отримує запрошення в одне з провідних модних агентств, вона, ні секунди не сумніваючись, відправляється в Париж. На одній з фотосесій Емма зустрічає успішного і привабливого фотографа Шейна Уайта, в якого закохується з першого погляду. Однак світ моди диктує свої умови і те, що спочатку складалося для неї як казка, починає поступово переростати в небезпечну одержимість і справжній нічний кошмар.


Тривалість: 01:48:02
Якість: Remux
Відео:
кодек:
розмір кадру: 1920 х 1080
бітрейт: 19800 кб/с

Аудіо # 1:
мова: українська
переклад: багатоголосий закадровий
кодек: -HD MA 5.1
бітрейт: 3422 кб/с

Аудіо # 2:
мова: англійська, данська, французька
переклад: оригінал
кодек: -HD MA 5.1
бітрейт: 1920 кб/с
Info
General
Unique ID : 180975948608150097060743750054463968327 (0x8826B32A46AEDA81A95B3C7ED2109447)
Complete name : D:\The Model (2016) Remux [Ukr, Eng] [Hurtom].
Format :
Format version : Version 4 / Version 2
File size : 19.0 GiB
Duration : 1 h 48 min
Overall bit rate mode : Variable
Overall bit rate : 25.2 Mb/s
Encoded date : UTC 2017-03-24 12:50:02
Writing application : mkvmerge v8.0.0 ('Til The Day That I Die') 64bit
Writing library : libebml v1.3.1 + libmatroska v1.4.2

Video
ID : 1
Format : AVC
Format/Info : Advanced Video Codec
Format profile : [email protected]
Format settings, CABAC : Yes
Format settings, ReFrames : 2 frames
Format settings, GOP : M=1, N=5
Codec ID : V_MPEG4/ISO/AVC
Duration : 1 h 48 min
Bit rate mode : Variable
Bit rate : 19.8 Mb/s
Maximum bit rate : 34.2 Mb/s
Width : 1 920 pixels
Height : 1 080 pixels
Display aspect ratio : 16:9
Frame rate mode : Constant
Frame rate : 24.000 FPS
Color space : YUV
Chroma subsampling : 4:2:0
Bit depth : 8 bits
Scan type : Progressive
Bits/(Pixel*Frame) : 0.398
Stream size : 15.0 GiB (79%)
Language : English
Default : Yes
Forced : No

Audio #1
ID : 2
Format :
Format/Info : Digital Theater Systems
Format profile : MA / Core
Mode : 16
Format settings, Endianness : Big
Codec ID : A_DTS
Duration : 1 h 48 min
Bit rate mode : Variable / Constant
Bit rate : 3 422 kb/s / 1 509 kb/s
Channel(s) : 6 channels
Channel positions : Front: L C R, Side: L R, LFE
Sampling rate : 48.0 kHz
Frame rate : 93.750 FPS (512 spf)
Bit depth : 24 bits
Compression mode : Lossless / Lossy
Stream size : 2.58 GiB (14%)
Language : Ukrainian
Default : Yes
Forced : No

Audio #2
ID : 3
Format :
Format/Info : Digital Theater Systems
Format profile : MA / Core
Mode : 16
Format settings, Endianness : Big
Codec ID : A_DTS
Duration : 1 h 48 min
Bit rate mode : Variable / Constant
Bit rate : 1 920 kb/s / 1 509 kb/s
Channel(s) : 6 channels
Channel positions : Front: L C R, Side: L R, LFE
Sampling rate : 48.0 kHz
Frame rate : 93.750 FPS (512 spf)
Bit depth : 16 bits
Compression mode : Lossless / Lossy
Stream size : 1.44 GiB (8%)
Language : English
Default : No
Forced : No

Menu
00:00:00.000 : en:00:00:00.000
00:03:12.526 : en:00:03:12.526
00:08:50.822 : en:00:08:50.822
00:14:23.112 : en:00:14:23.112
00:17:40.059 : en:00:17:40.059
00:21:49.892 : en:00:21:49.892
00:26:15.783 : en:00:26:15.783
00:31:23.340 : en:00:31:23.340
00:36:22.847 : en:00:36:22.847
00:41:23.940 : en:00:41:23.940
00:46:11.185 : en:00:46:11.185
00:49:30.342 : en:00:49:30.342
00:53:28.247 : en:00:53:28.247
00:57:00.459 : en:00:57:00.459
01:01:44.743 : en:01:01:44.743
01:07:42.767 : en:01:07:42.767
01:11:16.731 : en:01:11:16.731
01:18:47.473 : en:01:18:47.473
01:23:20.120 : en:01:23:20.120
01:27:53.810 : en:01:27:53.810


Джерело:


Золотий реліз (завантажене не впливає на рейтинг)
 Трекер:    Зареєстрований   

Завантажити / скачати фільм українською



відео для новачків



 Зареєстрований:   2017-03-24 20:10
 Розмір:   18.99 GB 
 Оцінка фільму:   4.5/10 (Голосів: 18)
   
Інші релізи
   Топ-модель / The Model (2016) AVC Ukr/Eng | Sub Eng/Ger 11FrYkT  3 / 0   2.16 GB   2017-03-26 14:58 
   Топ-модель / The Model (2016) 720p Ukr/Eng | Sub Eng/Ger igor911  6 / 0   5.76 GB   2017-03-25 12:43 
   Топ-модель / The Model (2016) AngryBirdsUA  6 / 0   1.46 GB   2017-03-24 20:10 
Ваш часовий пояс: GMT + 2 Години

Нова тема   Відповісти