Ваяна / Моана / Moana (2016) 720p-mini (60 fps)

Нові коментарі

Нова тема   Відповісти
Автор Повідомлення
Drool 
VIP


З нами з: 17.04.10
Востаннє: 20.08.17
Повідомлень: 1373

2017-03-24 13:52  
Ваяна / Моана / Moana (2016) 720p-mini (60 fps)

Ваяна / Моана / Moana (2016) 720p-mini (60 fps)


Жанр: анімація, пригодницький, комедія
Країна: США


Дітям рекомендується дивитися фільм з батьками
Рекомендується присутність батьків. Деякий матеріал, можливо, не підходить для дітей. Цей рейтинг показує, що оцінений фільм може містити деякі сцени, проглядання яких маленькими дітьми може не сподобатися їх батькам. Матеріал, який може бути присутнім у фільмі, повинен бути пояснений і розібраний з дітьми перш, ніж їм дозволять відвідати фільм. Явні сексуальні сцени і сцени вживання наркотиків відсутні; нагота, якщо присутня, то тільки дуже обмежено, жах і насильство не перевищують середнього рівня.
Кінокомпанія: Walt Disney Animation Studios, Walt Disney Pictures
Режисер: Рон Клементс, Джон Маскер, Дон Голл, Кріс Вільямс
Актори: Аулії Кравалго, Двейн Джонсон, Рейчел Гаус, Темуера Моррісон, Джемейн Клемент, Алан Т'юдік, Ніколь Шерзінґер

Сюжет:
Серед мальовничих островів Тихого океану юна дівчина вирушає у сповнену небезпек мандрівку. Завдань всього-нічого: виконати заповіти предків, знайти втрачену родину, подолати безкрайній океан, який населяють страхітливі морські істоти і знайти своє справжнє призначення. Час вирушати в захопливу і яскраву анімаційну експедицію!


Тривалість: 01:47:12
Якість: 720p-mini
Відео:
кодек:
розмір кадру: 1280x536
бітрейт: 6214 кб/с
crf: 17.0 [vbv_maxrate=14000]
кадрів на секунду: 59.940 к/с

Аудіо:
мова: українська
переклад: професійний дубльований
кодек: 5.1
бітрейт: 448 кб/с
Info
Код:
General
Unique ID                                : 182283024297569152327460795213324444844 (0x89226EF8DC61ADBAB830E9FD1D2364AC)
Complete name                            : /mnt/disk_d/Video/Moana.2016.Ukr.Dub..720p-mini.60fps.
Format                                   :
Format version                           : Version 4 / Version 2
File size                                : 5.09 GiB
Duration                                 : 1h 47mn
Overall bit rate                         : 6 797 Kbps
Movie name                               : Ваяна / Moana (2016) 720p-mini [60 fps] | NNNB
Encoded date                             : UTC 2017-05-16 08:05:44
Writing application                      : mkvmerge v9.7.1 ('Pandemonium') 64bit
Writing library                          : libebml v1.3.4 + libmatroska v1.4.5
Attachements                             : cover.png
DURATION                                 : 01:47:12.736000000
NUMBER_OF_FRAMES                         : 201023
NUMBER_OF_BYTES                          : 360233216
_STATISTICS_WRITING_APP                  : mkvmerge v9.7.1 ('Pandemonium') 64bit
_STATISTICS_WRITING_DATE_UTC             : 2017-05-16 08:05:44
_STATISTICS_TAGS                         : BPS DURATION NUMBER_OF_FRAMES NUMBER_OF_BYTES

Video
ID                                       : 1
Format                                   : AVC
Format/Info                              : Advanced Video Codec
Format profile                           : [email protected]
Format settings, CABAC                   : Yes
Format settings, ReFrames                : 9 frames
Codec ID                                 : V_MPEG4/ISO/AVC
Duration                                 : 1h 47mn
Bit rate                                 : 6 214 Kbps
Width                                    : 1 280 pixels
Height                                   : 536 pixels
Display aspect ratio                     : 2.40:1
Frame rate mode                          : Constant
Frame rate                               : 60.000 fps
Color space                              : YUV
Chroma subsampling                       : 4:2:0
Bit depth                                : 8 bits
Scan type                                : Progressive
Bits/(Pixel*Frame)                       : 0.151
Stream size                              : 4.65 GiB (91%)
Title                                    : Ваяна / Moana (2016) 720p-mini [60 fps] | NNNB
Writing library                          : core 146 r2538 121396c
Encoding settings                        : cabac=1 / ref=9 / deblock=1:0:0 / analyse=0x3:0x113 / me=umh / subme=9 / psy=1 / psy_rd=1.00:0.00 / mixed_ref=1 / me_range=24 / chroma_me=1 / trellis=2 / 8x8dct=1 / cqm=0 / deadzone=21,11 / fast_pskip=0 / chroma_qp_offset=-2 / threads=12 / lookahead_threads=1 / sliced_threads=0 / nr=0 / decimate=1 / interlaced=0 / bluray_compat=0 / constrained_intra=0 / bframes=5 / b_pyramid=2 / b_adapt=2 / b_bias=0 / direct=3 / weightb=1 / open_gop=0 / weightp=2 / keyint=250 / keyint_min=25 / scenecut=40 / intra_refresh=0 / rc_lookahead=40 / rc=crf / mbtree=0 / crf=17.0 / qcomp=0.60 / qpmin=0 / qpmax=69 / qpstep=4 / vbv_maxrate=14000 / vbv_bufsize=14000 / crf_max=0.0 / nal_hrd=none / filler=0 / ip_ratio=1.40 / pb_ratio=1.30 / aq=3:1.00
Default                                  : Yes
Forced                                   : Yes
DURATION                                 : 01:47:12.134000000
NUMBER_OF_FRAMES                         : 385928
NUMBER_OF_BYTES                          : 5101927042
_STATISTICS_WRITING_APP                  : mkvmerge v9.7.1 ('Pandemonium') 64bit
_STATISTICS_WRITING_DATE_UTC             : 2017-05-16 08:05:44
_STATISTICS_TAGS                         : BPS DURATION NUMBER_OF_FRAMES NUMBER_OF_BYTES

Audio
ID                                       : 2
Format                                   : AC-3
Format/Info                              : Audio Coding 3
Mode extension                           : CM (complete main)
Format settings, Endianness              : Big
Codec ID                                 : A_AC3
Duration                                 : 1h 47mn
Bit rate mode                            : Constant
Bit rate                                 : 448 Kbps
Channel(s)                               : 6 channels
Channel positions                        : Front: L C R, Side: L R, LFE
Sampling rate                            : 48.0 KHz
Compression mode                         : Lossy
Stream size                              : 344 MiB (7%)
Title                                    : Dub [LeDoyen] 5.1 448 Kbps [Hurtom]
Language                                 : Ukrainian
Default                                  : Yes
Forced                                   : Yes
Скріншоти


Джерело відеоряду:
Особиста оцінка: 8 - мені сподобалося


 Трекер:    Зареєстрований   

Завантажити / скачати мультфільм українською



відео для новачків



 Зареєстрований:   2017-05-16 12:58
 Розмір:   5.09 GB 
 Оцінка мультфільму:   9.7/10 (Голосів: 24)
   
Інші релізи
   Ваяна / Моана / Moana (2016) 1080p 3D [Half OverUnder] Ukr/Eng | Sub Eng igor911  9 / 0   13.57 GB   2017-04-13 19:43 
   Ваяна / Моана / Moana (2016) 1080 Ukr/Eng | Sub Eng Electroz  50 / 4   9.87 GB   2017-04-13 01:00 
   Ваяна / Моана / Moana (2016) 720p Ukr/Eng | Sub Eng igor911  86 / 1   4.15 GB   2017-04-13 00:41 
   Ваяна / Моана / Moana (2016) Remux 1080p Ukr/Eng | Sub Eng 11FrYkT  11 / 0   27.17 GB   2017-04-12 19:38 
   Ваяна / Моана / Moana (2016) Gelios  104 / 1   1.45 GB   2017-04-12 19:38 
   Ваяна / Моана / Moana (2016) AVC AngryBirdsUA  227 / 0   2 GB   2017-03-22 21:52 
bot 
робот


З нами з: 30.09.07
Востаннє: 26.05.05
Повідомлень: 17368

2017-03-24 16:04  
Тему перенесено з Анонси релізів до форуму Мультфільми в HD


Drool

Drool 
VIP


З нами з: 17.04.10
Востаннє: 20.08.17
Повідомлень: 1373

2017-05-16 13:02  
Замінено двукову доріжку на , 48000 Hz, 5.1, fltp, 448 kb/s!
Kiara 
Свій


З нами з: 18.08.10
Востаннє: 29.07.17
Повідомлень: 100

2017-05-17 03:10  
Ніякої швидкості Sad (1)
Я вже третю годину завантажити не можу, 50-60кБ\с скачує. 50% спочатку завантажило за кілька хвилин (1 МБ\с) а 9% скачало за 2 години Sad (1) Народ, прошу добавте швидкості! Бо так довго я давно нічого не завантажувала Sad (1)

Drool 
VIP


З нами з: 17.04.10
Востаннє: 20.08.17
Повідомлень: 1373

2017-05-17 10:59  
Так якби ж народ сідував...
Lil`Antoni 
VIP


З нами з: 25.02.12
Востаннє: 17.08.17
Повідомлень: 366

2017-05-17 13:09  
Я немаю місця куди скачат, коли знайду то обов"язково гляну
Kiara 
Свій


З нами з: 18.08.10
Востаннє: 29.07.17
Повідомлень: 100

2017-05-17 17:29  
Та я вже завершила завантаження, нарешті )) Не пройшло і пів віку))
Хоч від мене буде кому завантажити Wide grin

waldi-hurtom 
VIP


З нами з: 07.10.12
Востаннє: 20.08.17
Повідомлень: 671

2017-07-30 18:50  
Місцями мульт - шедевр. Але коли вивалюється мюзікл з дебільними хоровими танцями - так блєват і тягнє. І це ледь не 50% часу! Коли вже передохнуть старпери, що виросли на мюзіклах з їх уподобаннями? 6 з 10. Дякую за реліз!
Ваш часовий пояс: GMT + 2 Години

Нова тема   Відповісти