Елвіс та Ніксон / Elvis & Nixon (2016) AVC Ukr/Eng | Sub Eng

Нові коментарі

Нова тема   Відповісти
Автор Повідомлення
Anonymous 







2017-03-24 11:29  
Елвіс та Ніксон / Elvis & Nixon (2016) AVC Ukr/Eng | Sub Eng

Елвіс та Ніксон / Elvis & Nixon (2016) AVC Ukr/Eng | Sub Eng


Жанр: комедія, історичний
Країна: США



Кінокомпанія: Amazon Studios, Autumn Productions
Режисер: Ліза Джонсон / Liza Johnson
Актори: Кевін Спейсі / Kevin Spacey, Майкл Шеннон / Michael Shannon, Алекс Петтіфер / Alex Pettyfer, Джонні Ноксвіл / Johnny Knoxville, Колін Хенкс / Colin Hanks, Еван Пітерс / Evan Peters, Скай Феррейра / Sky Ferreira, Ешлі Бенсон / Ashley Benson, Анна О'Рейлі / Ahna O'Reilly та інші

Сюжет:
Кінець 1970 року. Для президента США Ричарда Ніксона (Кевін Спейсі) цей рік був непростим – усе свідчило про те, що рейтинги політика безнадійно падають. Не менш відомий, ніж президент країни, Елвіс Преслі (Майкл Шеннон) уже не на піку популярності. Але його все ще люблять мільйони. Рано-вранці 21 грудня Елвіс стояв на порозі Білого Дому з листом до президента і задля аудієнції. Головною метою візиту було прохання Короля рок-н-ролу зробити його таємним радником президента та агентом Наркоконтролю.

Офіційний український трейлер:
Офіційний український трейлер #2:



Вікова категорія: 10+

Тривалість: 01:26:09
Якість: AVC
Відео:
кодек:
розмір кадру: 1152 х 480
бітрейт: 2726 кб/с

Аудіо 1:
мова: українська
переклад: багатоголосий закадровий
кодек: 5.1
бітрейт: 448 кб/с

Аудіо 2:
мова: англійська
переклад: оригінал
кодек: 5.1
бітрейт: 448 кб/с

Субтитри:
мова: англійська
тип: програмні (м'які)
формат: *.srt
Info
Код:
Format                      :
Format version              : Version 4 / Version 2
File size                   : 2.18 GiB
Duration                    : 1 h 26 min
Overall bit rate            : 3 624 kb/s

Video
ID                          : 1
Format                      : AVC
Format/Info                 : Advanced Video Codec
Format profile              : [email protected]
Format settings, CABAC      : Yes
Format settings, ReFrames   : 10 frames
Codec ID                    : V_MPEG4/ISO/AVC
Duration                    : 1 h 26 min
Bit rate                    : 2 726 kb/s
Width                       : 1 152 pixels
Height                      : 480 pixels
Display aspect ratio        : 2.40:1
Frame rate mode             : Constant
Frame rate                  : 23.976 (24000/1001) FPS
Color space                 : YUV
Chroma subsampling          : 4:2:0
Bit depth                   : 8 bits
Scan type                   : Progressive
Bits/(Pixel*Frame)          : 0.206
Stream size                 : 1.64 GiB (75%)
Title                       : Елвіс та Ніксон / Elvis & Nixon (2016) AVC [Hellywood-potroks]
Writing library             : core 148 r2705M 3f5ed56
Encoding settings           : cabac=1 / ref=10 / deblock=1:-2:-2 / analyse=0x3:0x133 / me=umh / subme=11 / psy=1 / psy_rd=1.04:0.10 / mixed_ref=1 / me_range=48 / chroma_me=1 / trellis=2 / 8x8dct=1 / cqm=0 / deadzone=21,11 / fast_pskip=0 / chroma_qp_offset=-3 / threads=9 / lookahead_threads=2 / sliced_threads=0 / nr=0 / decimate=0 / interlaced=0 / bluray_compat=0 / constrained_intra=0 / bframes=11 / b_pyramid=2 / b_adapt=2 / b_bias=0 / direct=3 / weightb=1 / open_gop=0 / weightp=2 / keyint=240 / keyint_min=23 / scenecut=40 / intra_refresh=0 / rc_lookahead=100 / rc=2pass / mbtree=0 / bitrate=2726 / ratetol=1.0 / qcomp=0.70 / qpmin=1 / qpmax=69 / qpstep=4 / cplxblur=20.0 / qblur=0.5 / vbv_maxrate=50000 / vbv_bufsize=60000 / nal_hrd=none / filler=0 / ip_ratio=1.40 / pb_ratio=1.30 / aq=1:0.75
Language                    : English
Default                     : Yes
Forced                      : No

Audio #1
ID                          : 2
Format                      : AC-3
Format/Info                 : Audio Coding 3
Format settings, Endianness : Big
Codec ID                    : A_AC3
Duration                    : 1 h 26 min
Bit rate mode               : Constant
Bit rate                    : 448 kb/s
Channel(s)                  : 6 channels
Channel positions           : Front: L C R, Side: L R, LFE
Sampling rate               : 48.0 kHz
Frame rate                  : 31.250 FPS (1536 spf)
Bit depth                   : 16 bits
Compression mode            : Lossy
Stream size                 : 276 MiB (12%)
Title                       : MVO, 5.1 448 Kbps [Hurtom-AngryBirdsUA]
Language                    : Ukrainian
Service kind                : Complete Main
Default                     : Yes
Forced                      : Yes

Audio #2
ID                          : 3
Format                      : AC-3
Format/Info                 : Audio Coding 3
Format settings, Endianness : Big
Codec ID                    : A_AC3
Duration                    : 1 h 26 min
Bit rate mode               : Constant
Bit rate                    : 448 kb/s
Channel(s)                  : 6 channels
Channel positions           : Front: L C R, Side: L R, LFE
Sampling rate               : 48.0 kHz
Frame rate                  : 31.250 FPS (1536 spf)
Bit depth                   : 16 bits
Compression mode            : Lossy
Stream size                 : 276 MiB (12%)
Title                       : Original, 5.1 448 kbps
Language                    : English
Service kind                : Complete Main
Default                     : No
Forced                      : No

Text
ID                          : 4
Format                      : UTF-8
Codec ID                    : S_TEXT/UTF8
Codec ID/Info               : UTF-8 Plain Text
Duration                    : 1 h 20 min
Bit rate                    : 81 b/s
Count of elements           : 1508
Stream size                 : 48.3 KiB (0%)
Title                       : Eng full
Language                    : English
Default                     : No
Forced                      : No

Menu
00:00:00.000                : :Chapter 1
00:04:56.129                : :Chapter 2
00:10:34.717                : :Chapter 3
00:15:43.108                : :Chapter 4
00:21:12.688                : :Chapter 5
00:26:17.325                : :Chapter 6
00:31:09.826                : :Chapter 7
00:36:54.086                : :Chapter 8
00:42:49.400                : :Chapter 9
00:47:46.280                : :Chapter 10
00:53:30.540                : :Chapter 11
00:59:41.619                : :Chapter 12
01:05:53.491                : :Chapter 13
01:10:21.341                : :Chapter 14
01:14:24.042                : :Chapter 15
01:19:44.446                : :Chapter 16


Джерело: &
Подяка AngryBirdsUA за українську доріжку.

ЗАЛИШАЙТЕСЬ ЯКОМОГА ДОВШЕ НА РОЗДАЧІ
ЗАВАНТАЖИВ САМ - ДАЙ ЗАВАНТАЖИТИ ІНШИМ!


 Трекер:    Зареєстрований   

Завантажити / скачати фільм українською



відео для новачків



 Зареєстрований:   2017-03-24 13:32
 Розмір:   2.18 GB 
 Оцінка фільму:   5.3/10 (Голосів: 19)
   
Інші релізи
st_78 
VIP


З нами з: 18.11.16
Востаннє: 25.04.17
Повідомлень: 411

2017-03-24 15:25  
Опис сюжету такий, що аж не віриться у його реальність. Подивимось.

Додано через 1 хвилину 8 секунд:

А це часом не ремейк стрічки 1997 року?

st_78 
VIP


З нами з: 18.11.16
Востаннє: 25.04.17
Повідомлень: 411

2017-03-24 19:53  
Класний у Спейсі вийшов Ніксон, наче справжній (порівнював з тим, що у Футурамі Happy).
Ваш часовий пояс: GMT + 2 Години

Нова тема   Відповісти