Елвіс та Ніксон / Elvis & Nixon (2016) 720p Ukr/Eng | Sub Eng

Нові коментарі

Нова тема   Відповісти
Автор Повідомлення
Anonymous 







2017-03-24 11:19  
Елвіс та Ніксон / Elvis & Nixon (2016) 720p Ukr/Eng | Sub Eng

Елвіс та Ніксон / Elvis & Nixon (2016) 720p Ukr/Eng | Sub Eng


Жанр: комедія, історичний
Країна: США



Кінокомпанія: Amazon Studios, Autumn Productions
Режисер: Ліза Джонсон / Liza Johnson
Актори: Кевін Спейсі / Kevin Spacey, Майкл Шеннон / Michael Shannon, Алекс Петтіфер / Alex Pettyfer, Джонні Ноксвіл / Johnny Knoxville, Колін Хенкс / Colin Hanks, Еван Пітерс / Evan Peters, Скай Феррейра / Sky Ferreira, Ешлі Бенсон / Ashley Benson, Анна О'Рейлі / Ahna O'Reilly та інші

Сюжет:
Кінець 1970 року. Для президента США Ричарда Ніксона (Кевін Спейсі) цей рік був непростим – усе свідчило про те, що рейтинги політика безнадійно падають. Не менш відомий, ніж президент країни, Елвіс Преслі (Майкл Шеннон) уже не на піку популярності. Але його все ще люблять мільйони. Рано-вранці 21 грудня Елвіс стояв на порозі Білого Дому з листом до президента і задля аудієнції. Головною метою візиту було прохання Короля рок-н-ролу зробити його таємним радником президента та агентом Наркоконтролю.

Офіційний український трейлер:
Офіційний український трейлер #2:



Вікова категорія: 10+

Тривалість: 01:26:09
Якість: 720p
Відео:
кодек:
розмір кадру: 1280 х 534
бітрейт: 6897 кб/с [crf=14.6]

Аудіо 1:
мова: українська
переклад: багатоголосий закадровий
кодек: 5.1
бітрейт: 640 кб/с

Аудіо 2:
мова: англійська
переклад: оригінал
кодек: 5.1
бітрейт: 640 кб/с

Субтитри # 1-2:
мова: англійська (повні, SDH)
тип: програмні (м'які)
формат: *.srt

Збережено оригінальні розділи, як на Blu-ray
Info
Код:
Format                      :
Format version              : Version 4 / Version 2
File size                   : 4.92 GiB
Duration                    : 1 h 26 min
Overall bit rate            : 8 180 kb/s

Video
ID                          : 1
Format                      : AVC
Format/Info                 : Advanced Video Codec
Format profile              : [email protected]
Format settings, CABAC      : Yes
Format settings, ReFrames   : 12 frames
Codec ID                    : V_MPEG4/ISO/AVC
Duration                    : 1 h 26 min
Bit rate                    : 6 897 kb/s
Width                       : 1 280 pixels
Height                      : 534 pixels
Display aspect ratio        : 2.40:1
Frame rate mode             : Constant
Frame rate                  : 23.976 (24000/1001) FPS
Color space                 : YUV
Chroma subsampling          : 4:2:0
Bit depth                   : 8 bits
Scan type                   : Progressive
Bits/(Pixel*Frame)          : 0.421
Stream size                 : 4.15 GiB (84%)
Title                       : Елвіс та Ніксон / Elvis & Nixon (2016) 720p [ExKinoRay]
Writing library             : core 148 r2705+54 9f484c1 t_mod_Custom [[email protected] X86_64]
Encoding settings           : cabac=1 / ref=12 / deblock=1:-3:-3 / analyse=0x3:0x133 / me=umh / subme=11 / psy=1 / fade_compensate=0.00 / psy_rd=0.92:0.00 / mixed_ref=1 / me_range=32 / chroma_me=1 / trellis=2 / 8x8dct=1 / cqm=0 / deadzone=21,11 / fast_pskip=0 / chroma_qp_offset=-2 / threads=6 / lookahead_threads=1 / sliced_threads=0 / nr=0 / decimate=0 / interlaced=0 / bluray_compat=0 / constrained_intra=0 / fgo=0 / bframes=8 / b_pyramid=2 / b_adapt=2 / b_bias=0 / direct=3 / weightb=1 / open_gop=0 / weightp=2 / keyint=250 / keyint_min=23 / scenecut=40 / intra_refresh=0 / rc_lookahead=60 / rc=crf / mbtree=0 / crf=14.6000 / qcomp=0.62 / qpmin=0:0:0 / qpmax=69:69:69 / qpstep=4 / vbv_maxrate=30000 / vbv_bufsize=38000 / crf_max=0.0 / nal_hrd=none / filler=0 / ip_ratio=1.30 / pb_ratio=1.20 / aq=1:0.80 / aq-sensitivity=10.00 / aq-factor=1.00:1.00:1.00 / aq2=0 / aq3=0
Language                    : English
Default                     : Yes
Forced                      : No

Audio #1
ID                          : 2
Format                      : AC-3
Format/Info                 : Audio Coding 3
Format settings, Endianness : Big
Codec ID                    : A_AC3
Duration                    : 1 h 26 min
Bit rate mode               : Constant
Bit rate                    : 640 kb/s
Channel(s)                  : 6 channels
Channel positions           : Front: L C R, Side: L R, LFE
Sampling rate               : 48.0 kHz
Frame rate                  : 31.250 FPS (1536 spf)
Bit depth                   : 16 bits
Compression mode            : Lossy
Stream size                 : 394 MiB (8%)
Title                       : MVO, 5.1 640 Kbps [Hurtom-AngryBirdsUA]
Language                    : Ukrainian
Service kind                : Complete Main
Default                     : Yes
Forced                      : Yes

Audio #2
ID                          : 3
Format                      : AC-3
Format/Info                 : Audio Coding 3
Format settings, Endianness : Big
Codec ID                    : A_AC3
Duration                    : 1 h 26 min
Bit rate mode               : Constant
Bit rate                    : 640 kb/s
Channel(s)                  : 6 channels
Channel positions           : Front: L C R, Side: L R, LFE
Sampling rate               : 48.0 kHz
Frame rate                  : 31.250 FPS (1536 spf)
Bit depth                   : 16 bits
Compression mode            : Lossy
Stream size                 : 394 MiB (8%)
Title                       : Original, 5.1 640 Kbps
Language                    : English
Service kind                : Complete Main
Default                     : No
Forced                      : No

Text #1
ID                          : 4
Format                      : UTF-8
Codec ID                    : S_TEXT/UTF8
Codec ID/Info               : UTF-8 Plain Text
Duration                    : 1 h 20 min
Bit rate                    : 81 b/s
Count of elements           : 1508
Stream size                 : 48.3 KiB (0%)
Title                       : Eng Full
Language                    : English
Default                     : No
Forced                      : No

Text #2
ID                          : 5
Format                      : UTF-8
Codec ID                    : S_TEXT/UTF8
Codec ID/Info               : UTF-8 Plain Text
Duration                    : 1 h 22 min
Bit rate                    : 91 b/s
Count of elements           : 1765
Stream size                 : 55.3 KiB (0%)
Title                       : Eng SDH
Language                    : English
Default                     : No
Forced                      : No

Menu
00:00:00.000                : en:Chapter 01
00:04:56.129                : en:Chapter 02
00:10:34.717                : en:Chapter 03
00:15:43.109                : en:Chapter 04
00:21:12.688                : en:Chapter 05
00:26:17.326                : en:Chapter 06
00:31:09.826                : en:Chapter 07
00:36:54.087                : en:Chapter 08
00:42:49.400                : en:Chapter 09
00:47:46.280                : en:Chapter 10
00:53:30.541                : en:Chapter 11
00:59:41.620                : en:Chapter 12
01:05:53.491                : en:Chapter 13
01:10:21.342                : en:Chapter 14
01:14:24.043                : en:Chapter 15
01:19:44.446                : en:Chapter 16


Джерело: &
Подяка AngryBirdsUA за українську доріжку.

ЗАЛИШАЙТЕСЬ ЯКОМОГА ДОВШЕ НА РОЗДАЧІ
ЗАВАНТАЖИВ САМ - ДАЙ ЗАВАНТАЖИТИ ІНШИМ!


 Трекер:    Зареєстрований   

Завантажити / скачати фільм українською



відео для новачків



 Зареєстрований:   2017-03-24 23:59
 Розмір:   4.92 GB 
 Оцінка фільму:   3.6/10 (Голосів: 16)
   
Інші релізи
Ваш часовий пояс: GMT + 2 Години

Нова тема   Відповісти