Елвіс та Ніксон / Elvis & Nixon (2016) Remux 1080p Ukr/Eng | Sub Eng

Нові коментарі

Нова тема   Відповісти
Автор Повідомлення
AngryBirdsUA 
Свій


З нами з: 24.02.10
Востаннє: 19.01.20
Повідомлень: 3149

2017-03-24 10:03  
Елвіс та Ніксон / Elvis & Nixon (2016) Remux 1080p Ukr/Eng | Sub Eng

Елвіс та Ніксон / Elvis & Nixon (2016) Remux 1080p Ukr/Eng | Sub Eng


Жанр: комедія, історичний
Країна: США



Кінокомпанія: Amazon Studios
Режисер: Ліза Джонсон
Актори: Кевін Спейсі, Майкл Шеннон, Алекс Петтіфер, Джонні Ноксвіл, Колін Хенкс, Еван Пітерс, Скай Феррейра

Сюжет:
Кінець 1970 року. Для президента США Ричарда Ніксона (Кевін Спейсі) цей рік був непростим – усе свідчило про те, що рейтинги політика безнадійно падають. Не менш відомий, ніж президент країни, Елвіс Преслі (Майкл Шеннон) уже не на піку популярності. Але його все ще люблять мільйони. Рано-вранці 21 грудня Елвіс стояв на порозі Білого Дому з листом до президента і задля аудієнції. Головною метою візиту було прохання Короля рок-н-ролу зробити його таємним радником президента та агентом Наркоконтролю.


Тривалість: 01:26:09
Якість: Remux
Відео:
кодек:
розмір кадру: 1920 х 1080
бітрейт: 24900 кб/с

Аудіо 1:
мова: українська
переклад: багатоголосий закадровий
кодек: -HD MA 5.1
бітрейт: 3072 кб/с

Аудіо 2:
мова: англійська
переклад: оригінал
кодек: -HD MA 5.1
бітрейт: 2874 кб/с

Субтитри:
мова: англійська
тип: програмні (м'які)
формат: *.srt
Info
General
Unique ID : 228476691208194161470287737374372415743 (0xABE302972CA2FFCBA3009497AA4A48FF)
Complete name : D:\Elvis & Nixon (2016) Remux 1080p [Ukr.Eng] [Sub Eng] [Hurtom].
Format :
Format version : Version 4 / Version 2
File size : 18.5 GiB
Duration : 1 h 26 min
Overall bit rate mode : Variable
Overall bit rate : 30.8 Mb/s
Movie name : Elvis & Nixon (2016)
Encoded date : UTC 2017-03-24 07:34:11
Writing application : v8.0.0 ('Til The Day That I Die') 64bit
Writing library : libebml v1.3.1 + v1.4.2

Video
ID : 1
Format : AVC
Format/Info : Advanced Video Codec
Format profile : [email protected]
Format settings, CABAC : Yes
Format settings, ReFrames : 2 frames
Format settings, GOP : M=1, N=10
Codec ID : V_MPEG4/ISO/AVC
Duration : 1 h 26 min
Bit rate mode : Variable
Bit rate : 24.9 Mb/s
Width : 1 920 pixels
Height : 1 080 pixels
Display aspect ratio : 16:9
Frame rate mode : Constant
Frame rate : 23.976 (24000/1001) FPS
Color space : YUV
Chroma subsampling : 4:2:0
Bit depth : 8 bits
Scan type : Progressive
Bits/(Pixel*Frame) : 0.501
Stream size : 15.0 GiB (81%)
Default : Yes
Forced : No

Audio #1
ID : 2
Format :
Format/Info : Digital Theater Systems
Format profile : MA / Core
Mode : 16
Format settings, Endianness : Big
Codec ID : A_DTS
Duration : 1 h 26 min
Bit rate mode : Variable / Constant
Bit rate : 3 072 kb/s / 1 509 kb/s
Channel(s) : 6 channels
Channel positions : Front: L C R, Side: L R, LFE
Sampling rate : 48.0 kHz
Frame rate : 93.750 FPS (512 spf)
Bit depth : 24 bits
Compression mode : Lossless / Lossy
Delay relative to video : -8 ms
Stream size : 1.84 GiB (10%)
Language : Ukrainian
Default : Yes
Forced : No

Audio #2
ID : 3
Format :
Format/Info : Digital Theater Systems
Format profile : MA / Core
Mode : 16
Format settings, Endianness : Big
Codec ID : A_DTS
Duration : 1 h 26 min
Bit rate mode : Variable / Constant
Bit rate : 2 874 kb/s / 1 509 kb/s
Channel(s) : 6 channels
Channel positions : Front: L C R, Side: L R, LFE
Sampling rate : 48.0 kHz
Frame rate : 93.750 FPS (512 spf)
Bit depth : 24 bits
Compression mode : Lossless / Lossy
Delay relative to video : -8 ms
Stream size : 1.73 GiB (9%)
Language : English
Default : No
Forced : No

Text
ID : 4
Format : UTF-8
Codec ID : S_TEXT/UTF8
Codec ID/Info : UTF-8 Plain Text
Duration : 1 h 20 min
Bit rate : 81 b/s
Count of elements : 1508
Stream size : 48.3 KiB (0%)
Language : English
Default : No
Forced : No

Menu
00:00:00.000 : :Chapter 1
00:04:56.129 : :Chapter 2
00:10:34.717 : :Chapter 3
00:15:43.108 : :Chapter 4
00:21:12.688 : :Chapter 5
00:26:17.325 : :Chapter 6
00:31:09.826 : :Chapter 7
00:36:54.086 : :Chapter 8
00:42:49.400 : :Chapter 9
00:47:46.280 : :Chapter 10
00:53:30.540 : :Chapter 11
00:59:41.619 : :Chapter 12
01:05:53.491 : :Chapter 13
01:10:21.341 : :Chapter 14
01:14:24.042 : :Chapter 15
01:19:44.446 : :Chapter 16


Джерело:


Золотий реліз (завантажене не впливає на рейтинг)
 Трекер:    Зареєстрований   

Завантажити / скачати фільм українською



відео для новачків



 Зареєстрований:   2017-03-24 10:03
 Розмір:   18.55 GB 
 Оцінка фільму:   4.5/10 (Голосів: 17)
   
Інші релізи
   Елвіс та Ніксон / Elvis & Nixon (2016) 720p Ukr/Eng | Sub Eng igor911  1 / 0   4.92 GB   2017-03-24 22:59 
   Елвіс та Ніксон / Elvis & Nixon (2016) 1080p Ukr/Eng | Sub Eng igor911  2 / 0   10.38 GB   2017-03-24 15:51 
   Елвіс та Ніксон / Elvis & Nixon (2016) AVC Ukr/Eng | Sub Eng igor911  1 / 0   2.18 GB   2017-03-24 12:32 
   Елвіс та Ніксон / Elvis & Nixon (2016) AngryBirdsUA  1 / 0   1.45 GB   2017-03-24 10:18 
neokleo 
Новенький


З нами з: 05.12.17
Востаннє: 20.01.20
Повідомлень: 17

2018-12-06 11:38  
На правах марення має на існування. ) Гарні актори і сюжет непоганий. Але трохи динаміки не вистачило та трохи величнішого брєду. Інакше була б гарна комедія абсурду.
Ваш часовий пояс: GMT + 2 Години

Нова тема   Відповісти