Як уникнути кари за вбивство (Сезон 2) / How to Get Away with Murder (Season 2) (2015-2016) 720p Eng | sub Ukr

Нові коментарі

Нова тема   Відповісти
Автор Повідомлення
Петров Микола 
Поважний учасник


З нами з: 15.08.14
Востаннє: 18.08.17
Повідомлень: 195

2017-03-23 11:15  
Як уникнути кари за вбивство (Сезон 2) / How to Get Away with Murder (Season 2) (2015-2016) 720p Eng | sub Ukr



Жанр: кримінальний, детектив, трилер
Країна: США


Кінокомпанія: ShondaLand, Nowalk Entertainment, ABC Studios
Режисер: Білл Д'Еліа, Майкл Оффер.
Актори: Віола Девіс, Біллі Браун, Альфред Енох, Джек Фалахі, Кеті Фіндлей, Метт Макгоррі, Карла Соуса, Чарлі Вебер, Лайза Вайл.

Сюжет:
Захоплюючий кримінальний трилер про групу амбітних студентів юридичного університету та їх блискучого і загадкового викладача - професора права Енналіз Кітінг. Її курс «Як уникнути покарання за вбивство» передбачає глибоке вивчення світу юриспруденції - на практиці, а не в теорії. Всі вони - майбутні адвокати та їх викладач - виявляються втягнені в розслідування заплутаного вбивства, яке приголомшить весь університет і змінить їхні життя ...

Шукаємо редактора​, за детальнішою інформацією пишіть в Приват - Baida-Nemova

Тривалість: 1 серія ~42 хв.
Перелік серій
1 серія - Час жити далі/It's Time to Move On
2 серія - Вона вмирає/She's Dying
3 серія - Це називається "Восьминіг"/It's Called the Octopus
4 серія - Хвойди погано кінчають/Skanks Get Shanked
5 серія - Познайомся з Бонні/Meet Bonnie
6 серія - Двох зайців - одним Мілстоуном/Two Birds, One Millstone
7 серія - Я хочу твоєї смерті/I Want You to Die
8 серія - Привіт, я Філіп/Hi, I'm Philip
9 серія - Що ми наробили/What Did We Do?
10 серія - Що з тобою сталося, Енналіз/What Happened to You, Annalise?
11 серія - Вона нас ненавидить/She Hates Us
12 серія - Це пастка/It's a Trap
13 серія - Сталося щось погане/Something Bad Happened
14 серія - Ось моя донечка/There's My Baby
15 серія - Анна Мей/Anna Mae
Якість:
Відео:
кодек:
розмір кадру: 1 280 х 716
бітрейт: 2 086 кб/с

Аудіо:
мова: англійська
переклад: оригінал
кодек: 5.1
бітрейт: 384 кб/с

Субтитри:
мова: українська, переклад - Baida-Nemova
тип: програмні (м'які)
формат: *.srt
Info
General
Unique ID : 183857176795370524011265434118987784399 (0x8A519AAEB0D8E553CD450435D05520CF)
Complete name : D:\Релізи\How.To.Get.Away.With.Murder.(Season 2) 720p [Baida]\How.to.Get.Away.with.Murder.S02E01.720p.HDTV.-DIMENSION[Baida].
Format :
Format version : Version 4 / Version 2
File size : 773 MiB
Duration : 42mn 54s
Overall bit rate : 2 520 Kbps
Encoded date : UTC 2015-09-25 03:33:40
Writing application : mkvmerge v6.7.0 ('Back to the Ground') 64bit built on Jan 8 2014 14:31:51
Writing library : libebml v1.3.0 + libmatroska v1.4.1

Video
ID : 1
Format : AVC
Format/Info : Advanced Video Codec
Format profile : [email protected]
Format settings, CABAC : Yes
Format settings, ReFrames : 9 frames
Codec ID : V_MPEG4/ISO/AVC
Duration : 42mn 54s
Bit rate : 2 086 Kbps
Width : 1 280 pixels
Height : 716 pixels
Display aspect ratio : 16:9
Frame rate : 23.976 fps
Color space : YUV
Chroma subsampling : 4:2:0
Bit depth : 8 bits
Scan type : Progressive
Bits/(Pixel*Frame) : 0.095
Stream size : 640 MiB (83%)
Writing library : core 148 r2597 e86f3a1
Encoding settings : cabac=1 / ref=9 / deblock=1:-1:-1 / analyse=0x3:0x133 / me=umh / subme=10 / psy=1 / psy_rd=1.00:0.00 / mixed_ref=1 / me_range=24 / chroma_me=1 / trellis=2 / 8x8dct=1 / cqm=0 / deadzone=21,11 / fast_pskip=0 / chroma_qp_offset=-2 / threads=20 / lookahead_threads=2 / sliced_threads=0 / nr=0 / decimate=1 / interlaced=0 / bluray_compat=0 / constrained_intra=0 / bframes=5 / b_pyramid=2 / b_adapt=2 / b_bias=0 / direct=3 / weightb=1 / open_gop=0 / weightp=2 / keyint=250 / keyint_min=23 / scenecut=40 / intra_refresh=0 / rc_lookahead=60 / rc=crf / mbtree=1 / crf=18.0 / qcomp=0.60 / qpmin=0 / qpmax=69 / qpstep=4 / ip_ratio=1.40 / aq=1:1.00
Language : English
Default : No
Forced : No
Matrix coefficients : BT.709-5, BT.1361, IEC 61966-2-4 709, SMPTE RP177

Audio
ID : 2
Format : AC-3
Format/Info : Audio Coding 3
Mode extension : CM (complete main)
Format settings, Endianness : Big
Codec ID : A_AC3
Duration : 42mn 54s
Bit rate mode : Constant
Bit rate : 384 Kbps
Channel(s) : 6 channels
Channel positions : Front: L C R, Side: L R, LFE
Sampling rate : 48.0 KHz
Bit depth : 16 bits
Compression mode : Lossy
Stream size : 118 MiB (15%)
Default : Yes
Forced : No
Скріншоти




Джерело: &
Особиста оцінка: 8 - мені сподобалося


Авторський реліз (завантажувати можна без реєстрації)
 Трекер:    Зареєстрований   

Завантажити / скачати серіал українською



відео для новачків



 Зареєстрований:   2017-04-27 16:18
 Розмір:   14.31 GB 
 Оцінка серіалу:   9.9/10 (Голосів: 10)
   
Петров Микола 
Поважний учасник


З нами з: 15.08.14
Востаннє: 18.08.17
Повідомлень: 195

2017-03-27 15:57  
Додано 1-3 серії. Приємного перегляду!



Прохання підтримати роздачу.

tetna 
VIP


З нами з: 21.11.14
Востаннє: 18.08.17
Повідомлень: 371

2017-03-27 16:20  
дякую Happy
підтримаю.

11FrYkT 
Модератор відео


З нами з: 20.02.11
Востаннє: 18.08.17
Повідомлень: 3807

2017-03-27 18:29  
Петров Микола написано:
розмір кадру: 1 280 х 716

скріншоти не відповідають вказаному розміру

Петров Микола 
Поважний учасник


З нами з: 15.08.14
Востаннє: 18.08.17
Повідомлень: 195

2017-03-27 19:04  
11FrYkT написано:
скріншоти не відповідають вказаному розміру

Замінив.

tetna 
VIP


З нами з: 21.11.14
Востаннє: 18.08.17
Повідомлень: 371

2017-04-03 12:02  
Rolleyes (4) Rolleyes (2)
Петров Микола 
Поважний учасник


З нами з: 15.08.14
Востаннє: 18.08.17
Повідомлень: 195

2017-04-09 08:06  
Додано 4-5 серії. Приємного перегляду!



Прохання підтримати роздачу.

tetna 
VIP


З нами з: 21.11.14
Востаннє: 18.08.17
Повідомлень: 371

2017-04-09 10:13  
Алілуя!

ДЯКУЮ

tetna 
VIP


З нами з: 21.11.14
Востаннє: 18.08.17
Повідомлень: 371

2017-04-10 12:34  
класні серії.
наступні - за тиждень?

Петров Микола 
Поважний учасник


З нами з: 15.08.14
Востаннє: 18.08.17
Повідомлень: 195

2017-04-11 16:19  
Додано 6-7 серії. Приємного перегляду!



Прохання підтримати роздачу.

tetna 
VIP


З нами з: 21.11.14
Востаннє: 18.08.17
Повідомлень: 371

2017-04-11 18:24  
дяка
tetna 
VIP


З нами з: 21.11.14
Востаннє: 18.08.17
Повідомлень: 371

2017-04-12 20:40  
хочу ще !
tetna 
VIP


З нами з: 21.11.14
Востаннє: 18.08.17
Повідомлень: 371

2017-04-19 20:23  
скажіть хоча б приблизно коли чекати
будь ласка. Sad (1)

Петров Микола 
Поважний учасник


З нами з: 15.08.14
Востаннє: 18.08.17
Повідомлень: 195

2017-04-19 21:12  
tetna
Вибачте, але не маю змоги оновити реліз. Найраніше це 27 -28 квітня, але це приблизно.

tetna 
VIP


З нами з: 21.11.14
Востаннє: 18.08.17
Повідомлень: 371

2017-04-19 21:43  
ок
Петров Микола 
Поважний учасник


З нами з: 15.08.14
Востаннє: 18.08.17
Повідомлень: 195

2017-04-27 16:44  
Додано 8-15 серії. Сезон завершений.
Приємного перегляду!


Прохання підтримати роздачу.

tetna 
VIP


З нами з: 21.11.14
Востаннє: 18.08.17
Повідомлень: 371

2017-04-28 09:06  
стоїмо на місці. не рухаємося.
Sad (1)

tetna 
VIP


З нами з: 21.11.14
Востаннє: 18.08.17
Повідомлень: 371

2017-05-01 11:08  
дуже дякую за 2й сезон.

тепер питання щодо 3го Happy - будете робити? якщо так, то приблизно коли можна очікувати?
кинете сюди посилання на тему?
Happy

класнючий серіал.

Петров Микола 
Поважний учасник


З нами з: 15.08.14
Востаннє: 18.08.17
Повідомлень: 195

2017-05-01 14:26  
tetna
3 сезон буде, орієнтовно десь після 10.05, але можливо і раніше.

Шукаємо редактора​, за детальнішою інформацією пишіть в Приват - Baida-Nemova

tetna 
VIP


З нами з: 21.11.14
Востаннє: 18.08.17
Повідомлень: 371

2017-05-01 14:46  
здорово!
Ваш часовий пояс: GMT + 2 Години

Нова тема   Відповісти