Жива (2016) 720p

Нові коментарі

Нова тема   Відповісти
Автор Повідомлення
sergiyko.5 
VIP


З нами з: 25.02.16
Востаннє: 24.09.17
Повідомлень: 1069

2017-03-23 09:10  
Жива (2016) 720p

Жива (2016) 720p

Жанр: Драма, історичний
Країна: Україна
Кінокомпанія: Invert Pictures

Режисер: Тарас Химич
Актори: Ольга Комановська, Ростислав Держипільський, Юрій Хвостенко, Володимир Правосудов, Володимир Климук

Сюжет:
Фільм було знято за реальними подіями, які трапилися з Анною Попович у 1950-х роках. У 91 рік Попович розповіла свою історію авторам стрічки та дозволила її екранізувати. Більша частина зйомок відбувалися у Ґорґанах, у тих місцях, де відбувались події з життя Попович. Сцену з допитом головних героїв знімали у львівському Національному музеї-меморіалі жертв окупаційних режимів «Тюрма на Лонцького», директор якого, Руслан Забілий, виступив консультантом фільму.


Тривалість: 01:30:29
Якість:

Відео: кодек: розмір кадру: 1280 х 672 бітрейт: 3300 кб/с
Аудіо: мова: українська, російська переклад: оригінал кодек: 2.0 бітрейт: 256 кб/с
Субтитри: мова: українська тип: вбудовані (жорсткі) (на російську мову)
Про файл:
General
Unique ID : 229947748006769545583847470965613319328 (0xACFE534A56A4E19BA386A6BA9F32D4A0)
Complete name : D:\Torrents\Жива.2016.720p..
Format :
Format version : Version 4 / Version 2
File size : 2.26 GiB
Duration : 1h 30mn
Overall bit rate : 3 580 Kbps
Movie name : ЖИВА (2016) by sergiyko
Encoded date : UTC 2017-03-23 05:51:31
Writing application : mkvmerge v9.8.0 ('Kuglblids') 64bit
Writing library : libebml v1.3.4 + libmatroska v1.4.5
Attachements : cover.jpeg
DURATION : 01:30:28.576000000
NUMBER_OF_FRAMES : 169643
NUMBER_OF_BYTES : 173714432
_STATISTICS_WRITING_APP : mkvmerge v9.8.0 ('Kuglblids') 64bit
_STATISTICS_WRITING_DATE_UTC : 2017-03-23 05:51:31
_STATISTICS_TAGS : BPS DURATION NUMBER_OF_FRAMES NUMBER_OF_BYTES

Video
ID : 1
Format : AVC
Format/Info : Advanced Video Codec
Format profile : [email protected]
Format settings, CABAC : Yes
Format settings, ReFrames : 8 frames
Codec ID : V_MPEG4/ISO/AVC
Duration : 1h 30mn
Bit rate : 3 252 Kbps
Width : 1 280 pixels
Height : 672 pixels
Display aspect ratio : 1.905
Frame rate mode : Constant
Frame rate : 25.000 fps
Color space : YUV
Chroma subsampling : 4:2:0
Bit depth : 8 bits
Scan type : Progressive
Bits/(Pixel*Frame) : 0.151
Stream size : 2.06 GiB (91%)
Title : ЖИВА 2016 [ZIK]
Writing library : core 146 r2538 121396c
Encoding settings : cabac=1 / ref=8 / deblock=1:-1:-1 / analyse=0x3:0x133 / me=umh / subme=9 / psy=1 / psy_rd=1.00:0.15 / mixed_ref=1 / me_range=16 / chroma_me=1 / trellis=2 / 8x8dct=1 / cqm=0 / deadzone=21,11 / fast_pskip=1 / chroma_qp_offset=-3 / threads=6 / lookahead_threads=1 / sliced_threads=0 / nr=0 / decimate=1 / interlaced=0 / bluray_compat=0 / constrained_intra=0 / bframes=3 / b_pyramid=2 / b_adapt=2 / b_bias=0 / direct=3 / weightb=1 / open_gop=0 / weightp=2 / keyint=250 / keyint_min=25 / scenecut=40 / intra_refresh=0 / rc_lookahead=60 / rc=crf / mbtree=1 / crf=18.0 / qcomp=0.60 / qpmin=0 / qpmax=69 / qpstep=4 / ip_ratio=1.40 / aq=1:1.00
Language : Ukrainian
Default : Yes
Forced : No
DURATION : 01:30:28.600000000
NUMBER_OF_FRAMES : 135715
NUMBER_OF_BYTES : 2254005509
_STATISTICS_WRITING_APP : mkvmerge v9.8.0 ('Kuglblids') 64bit
_STATISTICS_WRITING_DATE_UTC : 2017-03-23 05:51:31
_STATISTICS_TAGS : BPS DURATION NUMBER_OF_FRAMES NUMBER_OF_BYTES

Audio
ID : 2
Format : AC-3
Format/Info : Audio Coding 3
Mode extension : CM (complete main)
Format settings, Endianness : Big
Codec ID : A_AC3
Duration : 1h 30mn
Bit rate mode : Constant
Bit rate : 256 Kbps
Channel(s) : 2 channels
Channel positions : Front: L R
Sampling rate : 48.0 KHz
Compression mode : Lossy
Stream size : 166 MiB (7%)
Title : 2ch Original
Language : Ukrainian
Default : Yes
Forced : No
Скріншоти:


Автор запису/ріпу: sergiyko



Золотий реліз (завантажене не впливає на рейтинг)
 Трекер:    Зареєстрований   

Завантажити / скачати український фільм



відео для новачків



 Зареєстрований:   2017-03-23 09:10
 Розмір:   2.26 GB 
 Оцінка фільму:   9.3/10 (Голосів: 60)
   
sergiyko.5 
VIP


З нами з: 25.02.16
Востаннє: 24.09.17
Повідомлень: 1069

2017-03-24 20:27  
Оптимальне співвідношення розміру та якості. Всім приємного перегляду.
SMOOTH 
Новенький


З нами з: 21.11.14
Востаннє: 16.09.17
Повідомлень: 5

2017-03-28 12:48  
Спавжнє Українське кіно --- патріотам України сподобається цей фільм.
vitalyjo 
Новенький


З нами з: 04.12.09
Востаннє: 18.09.17
Повідомлень: 7

2017-03-29 09:52  
Цікаво, а чому цей варіант коротше на 4 хв. за викладений в Інет?
sergiyko.5 
VIP


З нами з: 25.02.16
Востаннє: 24.09.17
Повідомлень: 1069

2017-03-29 10:09  
vitalyjo написано:
Цікаво, а чому цей варіант коротше на 4 хв. за викладений в Інет?


Частота кадрів : 24.000 кадр/сек
Частота кадрів : 25.000 кадр/сек HDTV

Кількість кадрів у фільмі постійна 135720 кадрів:

135720/24=5655/60=94,25хвилин (1година 34 хвилини) -
135720/25=5429/60=90,48хвилин (1година 30 хвилини) - HDTV

vitalyjo 
Новенький


З нами з: 04.12.09
Востаннє: 18.09.17
Повідомлень: 7

2017-03-29 10:23  
sergiyko.5
Дякую. Просто формальне уточнення: тобто тут фільм злегка прискорений?

sergiyko.5 
VIP


З нами з: 25.02.16
Востаннє: 24.09.17
Повідомлень: 1069

2017-03-29 10:39  
Так.
vitalyjo 
Новенький


З нами з: 04.12.09
Востаннє: 18.09.17
Повідомлень: 7

2017-03-29 11:11  
sergiyko.5
На сайті фільму довжина заявлена як 94 хв. Тобто фільм знімали на 24 кадрах. Мабуть, краще таки дивитись на оригінальній швидкості?

olpet 
Новенький


З нами з: 13.06.13
Востаннє: 30.08.17
Повідомлень: 21

2017-03-29 17:41  
В цілому гарний фільм, незважаючи на деяку схематичність персонажів та досить набридливу музику, що інколи заважає занурюватися в атмосферу тих драматичних подій...
stenislav 
Новенький


З нами з: 19.01.17
Востаннє: 10.09.17
Повідомлень: 2

2017-04-01 03:35  
Дуже сподобався фільм та й музика просто божественна. Фінальна пісня це щось з чимось!!!!!!!!!!!
fedoridze 
Новенький


З нами з: 25.12.14
Востаннє: 23.09.17
Повідомлень: 3

2017-04-07 22:33  
Нарешті дочекався торенту фільму «Жива». У листопаді був у Харкові, але день прем’єри співпав із днем відльоту. То ж не зміг потрапити у кінозал та гривнею підтримати фільм.
Що вам сказати…Вражений…Історія героїзму, кохання та зради…
На фоні карпатських краєвидів…
На фоні центрального саундтреку групи Був’є…
Своїм дилетантським сприйняттям відзначу операторську роботу.
Ось це особисто я і назову новим якісним українським кіно…
P.S. Обов’язкове до перегляду усім бандерівцям
P.P.S. Героям Слава!!!

mephistar1 
Новенький


З нами з: 14.11.14
Востаннє: 07.09.17
Повідомлень: 7

2017-04-16 19:10  
Епік фільм (на мій погляд - це трилер).
Дякую нашим кінотеатрам, за наздвичайно сильну підтримку проката :-(

aldhissla737 
Новенький


З нами з: 13.01.15
Востаннє: 20.09.17
Повідомлень: 3

2017-04-17 18:12  
sergiyko.5 , дякую за якість!
Ваш часовий пояс: GMT + 2 Години

Нова тема   Відповісти