Таліта Кум - Дискографія (3 альбоми) (2002-2007) [FLAC] | Pop-Rock

Нові коментарі

Нова тема   Відповісти
Автор Повідомлення
Lyolic 
Свій


З нами з: 04.08.09
Востаннє: 18.10.17
Повідомлень: 72

2017-03-22 03:08  
Таліта Кум - Дискографія (3 альбоми) (2002-2007) [FLAC] | Pop-Rock

Таліта Кум - Дискографія (3 альбоми) (2002-2007) [FLAC] | Pop-Rock


Стиль: Pop-Rock
Країна, місто: Україна, Львів
Видавець: Comp Music
Виконавці:
Юля Міщенко — вокал
Сергій Глушко — гітари
Віктор Окремов — бас
Сергій Добрянський — барабани
Володимир Григорович — клавішні
Костянтин Сухоносов — клавішні (2001-2004)
Альбоми:
іноземці (2002)

Іноземці — перший студійний альбом українського музичного поп-рок-гурту «Таліта Кум». Виданий 2002 року.

Література. Як не дивно, коли починаєш слухати цей альбом, відчуття таке, ніби відкриваєш книгу у глянцевій обкладинці. До речі, альбом дебютний. Але цю музику грають не новачки-аматори, і це видко хоча б з того, що музика пісень різноманітна, і досить насичена. Порівняйте "7я", "Вічна історія" та "Скажи мені, скажи" - то буде подорож від жарту до нічних проваль міста, а звідти прямо до про-латиноської жаги та жару. І у зв’язку з цим хочеться відзначити пластичність вокалу Юлі Міщенко - вона впевнено й точно передає настрої. Така собі родзинка міститься у тому, що при цьому вона залишається дещо відстороненою, ніби дивиться на все це з-за скла. Можливо, на це впливає ледь помітний акцент, манера вимовляння слів - чітка й пом’якшена разом. Ну ось ми й повернулись до присмаку літератури у сенсі звучання мови. Та й музика - дуже мелодійна, співуча, м’яка, але прохолодна, за нею відчутна тверда рука, тому й тече вона легко, наче струмок. Не гуаш, але акварелі, пастельні тони, прозорі краєвиди. Не літо, але бабине літо, дещо сонця в холодній воді, як писала Франсуаза Саган. - Антон Йожик Лейба

Тривалість: 45:29
01 - як на хмарах
02 - без слів
03 - іноземці
04 - 7я
05 - знаю
06 - вічна історія
07 - скажи мені, скажи
08 - почуття
09 - ба-ба-ба
10 - я би хотіла
11 - ті, хто після нас
12 - ca va (іноземці) (bonus)
Звіт EAC
Код:
Exact Audio Copy V0.99 prebeta 4 from 23. January 2008

Отчёт EAC об извлечении, выполненном 13. июня 2009, 0:07

Таліта Кум / іноземці

Дисковод: Optiarc DVD RW AD-7173S   Adapter: 1  ID: 0

Режим чтения                 : Достоверность
Использование точного потока : Да
Отключение кэша аудио        : Да
Использование указателей C2  : Нет

Коррекция смещения при чтении                     : 48
Способность читать области Lead-in и Lead-out     : Нет
Заполнение пропущенных сэмплов тишиной            : Да
Удаление блоков с тишиной в начале и конце        : Нет
При вычислениях CRC использовались нулевые сэмплы : Да
Интерфейс                                         : Встроенный Win32-интерфейс для Win NT/2000
Обработка зазоров                                 : Не обнаружено, добавлено к предыдущему треку

Выходной формат          : Пользовательский кодировщик
Выбранный битрейт        : 768 kBit/s
Качество                 : Высокий
Добавление ID3-тэга      : Нет
Утилита сжатия           : C:\Program Files (x86)\Exact Audio Copy\FLAC\FLAC.EXE
Дополнительные параметры : -6 -V -T "ARTIST=%a" -T "TITLE=%t" -T "ALBUM=%g" -T "DATE=%y" -T "TRACKNUMBER=%n" -T "GENRE=%m" -T "COMMENT=%e" %s -o %d

TOC извлечённого CD

     Трек |   Старт  | Длительность | Начальный сектор | Конечный сектор
    ---------------------------------------------------------------------
       1  |  0:00.00 |    3:44.43   |           0      |      16842
       2  |  3:44.43 |    3:13.65   |       16843      |      31382
       3  |  6:58.33 |    4:06.67   |       31383      |      49899
       4  | 11:05.25 |    3:30.68   |       49900      |      65717
       5  | 14:36.18 |    3:54.35   |       65718      |      83302
       6  | 18:30.53 |    3:46.73   |       83303      |     100325
       7  | 22:17.51 |    3:17.45   |      100326      |     115145
       8  | 25:35.21 |    4:04.31   |      115146      |     133476
       9  | 29:39.52 |    2:49.69   |      133477      |     146220
      10  | 32:29.46 |    3:56.59   |      146221      |     163979
      11  | 36:26.30 |    5:26.47   |      163980      |     188476
      12  | 41:53.02 |    3:36.27   |      188477      |     204703
      13  | 48:01.29 |   22:52.56   |      216104      |     319059

Трек  1

     Имя файла W:\EAC\01 - як на хмарах.wav

     Пиковый уровень 100.0 %
     Качество трека 100.0 %
     CRC копии 9825D834
     Копирование... OK

Трек  2

     Имя файла W:\EAC\02 - без слів.wav

     Пиковый уровень 100.0 %
     Качество трека 100.0 %
     CRC копии C12C466D
     Копирование... OK

Трек  3

     Имя файла W:\EAC\03 - іноземці.wav

     Пиковый уровень 100.0 %
     Качество трека 100.0 %
     CRC копии 256825C6
     Копирование... OK

Трек  4

     Имя файла W:\EAC\04 - 7я.wav

     Пиковый уровень 100.0 %
     Качество трека 100.0 %
     CRC копии F4C58EC6
     Копирование... OK

Трек  5

     Имя файла W:\EAC\05 - знаю.wav

     Пиковый уровень 100.0 %
     Качество трека 100.0 %
     CRC копии BAE680DA
     Копирование... OK

Трек  6

     Имя файла W:\EAC\06 - вічна історія.wav

     Пиковый уровень 100.0 %
     Качество трека 100.0 %
     CRC копии E0F66A68
     Копирование... OK

Трек  7

     Имя файла W:\EAC\07 - скажи мені, скажи.wav

     Пиковый уровень 100.0 %
     Качество трека 100.0 %
     CRC копии E07A9BAF
     Копирование... OK

Трек  8

     Имя файла W:\EAC\08 - почуття.wav

     Пиковый уровень 100.0 %
     Качество трека 99.9 %
     CRC копии 00D473CD
     Копирование... OK

Трек  9

     Имя файла W:\EAC\09 - ба-ба-ба.wav

     Пиковый уровень 100.0 %
     Качество трека 100.0 %
     CRC копии AF164D6E
     Копирование... OK

Трек 10

     Имя файла W:\EAC\10 - я би хотіла.wav

     Пиковый уровень 100.0 %
     Качество трека 99.9 %
     CRC копии 2018FC64
     Копирование... OK

Трек 11

     Имя файла W:\EAC\11 - ті, хто після нас.wav

     Пиковый уровень 100.0 %
     Качество трека 100.0 %
     CRC копии D4052341
     Копирование... OK

Трек 12

     Имя файла W:\EAC\12 - ca va (іноземці) (bonus).wav

     Пиковый уровень 100.0 %
     Качество трека 100.0 %
     CRC копии 7DE6B5C7
     Копирование... OK

Ошибок не произошло

Конец отчёта
Зміст CUE
Код:
REM GENRE Folk/Rock
REM DATE 2002
REM DISCID B7109E0D
REM COMMENT "ExactAudioCopy v0.99pb4"
PERFORMER "Таліта Кум"
TITLE "іноземці"
FILE "01 - як на хмарах.wav" WAVE
  TRACK 01 AUDIO
    TITLE "як на хмарах"
    PERFORMER "Таліта Кум"
    FLAGS DCP
    INDEX 01 00:00:00
  TRACK 02 AUDIO
    TITLE "без слів"
    PERFORMER "Таліта Кум"
    FLAGS DCP
    INDEX 00 03:42:43
FILE "02 - без слів.wav" WAVE
    INDEX 01 00:00:00
  TRACK 03 AUDIO
    TITLE "іноземці"
    PERFORMER "Таліта Кум"
    FLAGS DCP
    INDEX 00 03:11:65
FILE "03 - іноземці.wav" WAVE
    INDEX 01 00:00:00
  TRACK 04 AUDIO
    TITLE "7я"
    PERFORMER "Таліта Кум"
    FLAGS DCP
    INDEX 00 04:04:67
FILE "04 - 7я.wav" WAVE
    INDEX 01 00:00:00
  TRACK 05 AUDIO
    TITLE "знаю"
    PERFORMER "Таліта Кум"
    FLAGS DCP
    INDEX 00 03:28:68
FILE "05 - знаю.wav" WAVE
    INDEX 01 00:00:00
  TRACK 06 AUDIO
    TITLE "вічна історія"
    PERFORMER "Таліта Кум"
    FLAGS DCP
    INDEX 00 03:52:35
FILE "06 - вічна історія.wav" WAVE
    INDEX 01 00:00:00
  TRACK 07 AUDIO
    TITLE "скажи мені, скажи"
    PERFORMER "Таліта Кум"
    FLAGS DCP
    INDEX 00 03:44:73
FILE "07 - скажи мені, скажи.wav" WAVE
    INDEX 01 00:00:00
  TRACK 08 AUDIO
    TITLE "почуття"
    PERFORMER "Таліта Кум"
    FLAGS DCP
    INDEX 00 03:15:45
FILE "08 - почуття.wav" WAVE
    INDEX 01 00:00:00
  TRACK 09 AUDIO
    TITLE "ба-ба-ба"
    PERFORMER "Таліта Кум"
    FLAGS DCP
    INDEX 00 04:02:31
FILE "09 - ба-ба-ба.wav" WAVE
    INDEX 01 00:00:00
  TRACK 10 AUDIO
    TITLE "я би хотіла"
    PERFORMER "Таліта Кум"
    FLAGS DCP
    INDEX 00 02:47:69
FILE "10 - я би хотіла.wav" WAVE
    INDEX 01 00:00:00
  TRACK 11 AUDIO
    TITLE "ті, хто після нас"
    PERFORMER "Таліта Кум"
    FLAGS DCP
    INDEX 00 03:54:59
FILE "11 - ті, хто після нас.wav" WAVE
    INDEX 01 00:00:00
  TRACK 12 AUDIO
    TITLE "ca va (іноземці) (bonus)"
    PERFORMER "Таліта Кум"
    FLAGS DCP
    INDEX 00 05:24:47
FILE "12 - ca va (іноземці) (bonus).wav" WAVE
    INDEX 01 00:00:00
  TRACK 13 MODEx/2xxx
    TITLE "Диск із даними (CD-ROM)"
    PERFORMER "Таліта Кум"
    INDEX 00 03:36:27
Гаряча і гірка (2005)

Гаряча і гірка — другий студійний альбом українського музичного поп-рок-гурту «Таліта Кум». Виданий 2005 року.

На початку роботи над альбомом гурт залишив клавішник Костянтин Сухоносов, перейшовши до «Скрябіна».
Альбом записувався довго і досить ретельно на студії Олександра Пономарьова «З ранку до ночі». Запис, зведення та мастерінг здійснено директором студії Володимиром Григоровичем. Він також прописав усі клавішні партії альбому.

«Гаряча i гiрка» — ці якості кави як найкраще пасують як до самої Юлі Міенко так і до її групи «Таліта Кум». Альбом вийшов дуже романтичним, с хорошими текстами, до яких варто прислухатися та інтерпретувати на свій лад. Таліта Кум сама продюсує своє звучання, і це вже вдається в знаки. Якщо у першому альбомі «Іноземці», група шукала свій стиль, свою музику, то в другому альбомі ми бачимо вже упередженого артиста, музичний орнамент котрого вгадується з перших нот, а потім не перестає дивувати пошуками нової експресії. В цій музиці є щось від французького шансону, від львівського романсу. Всі ці звуки нанесені на сучасне звучання гітар, клавішних та ударних. В запису альбому широко використовувалась симфонічна музика. Альбом записувався довго і досить ретельно на студії Олександра Пономарева «З ранку до ночi». Запис, зведення та мастерінг здійснено директором студії Володимиром Григоровичем. Доречі, він також прописав усі клавішні партії альбому. - Art-Vertep

Тривалість: 37:44
01 - Гаряча і гірка
02 - Що знаєш ти про дівчат
03 - Життя у мінорі
04 - Гуляю
05 - Сльози
06 - Літай
07 - День народження
08 - Лови мене
09 - Білий танець
10 - Тік-Так
Звіт EAC
Код:
Exact Audio Copy V0.99 prebeta 5 from 4. May 2009

Отчёт EAC об извлечении, выполненном 13. июня 2009, 10:21

Таліта Кум / Гаряча і гірка

Дисковод: Optiarc DVD RW AD-7173S   Adapter: 1  ID: 0

Режим чтения                 : Достоверность
Использование точного потока : Да
Отключение кэша аудио        : Да
Использование указателей C2  : Нет

Коррекция смещения при чтении                     : 48
Способность читать области Lead-in и Lead-out     : Нет
Заполнение пропущенных сэмплов тишиной            : Да
Удаление блоков с тишиной в начале и конце        : Нет
При вычислениях CRC использовались нулевые сэмплы : Да
Нормализовать до                                  : 98 %
Интерфейс                                         : Встроенный Win32-интерфейс для Win NT/2000
Обработка зазоров                                 : Не обнаружено, добавлено к предыдущему треку

Выходной формат          : Пользовательский кодировщик
Выбранный битрейт        : 768 kBit/s
Качество                 : Высокий
Добавление ID3-тэга      : Нет
Утилита сжатия           : C:\Program Files (x86)\Exact Audio Copy\FLAC\FLAC.EXE
Дополнительные параметры : -6 -V -T "ARTIST=%a" -T "TITLE=%t" -T "ALBUM=%g" -T "DATE=%y" -T "TRACKNUMBER=%n" -T "GENRE=%m" -T "COMMENT=%e" %s -o %d

TOC извлечённого CD

     Трек |   Старт  | Длительность | Начальный сектор | Конечный сектор
    ---------------------------------------------------------------------
       1  |  0:00.00 |    4:27.64   |           0      |      20088
       2  |  4:27.64 |    3:08.63   |       20089      |      34251
       3  |  7:36.52 |    4:39.14   |       34252      |      55190
       4  | 12:15.66 |    3:17.24   |       55191      |      69989
       5  | 15:33.15 |    4:17.12   |       69990      |      89276
       6  | 19:50.27 |    3:55.51   |       89277      |     106952
       7  | 23:46.03 |    3:20.31   |      106953      |     121983
       8  | 27:06.34 |    4:10.42   |      121984      |     140775
       9  | 31:17.01 |    3:13.69   |      140776      |     155319
      10  | 34:30.70 |    3:12.46   |      155320      |     169765
      11  | 40:15.41 |   15:44.30   |      181166      |     251995

Трек  1

     Имя файла W:\EAC\01 - Гаряча і гірка.wav

     Пиковый уровень 67.7 %
     Качество трека 100.0 %
     CRC копии 3938DF04
     Копирование... OK

Трек  2

     Имя файла W:\EAC\02 - Що знаєш ти про дівчат.wav

     Пиковый уровень 66.9 %
     Качество трека 100.0 %
     CRC копии 2556D4D3
     Копирование... OK

Трек  3

     Имя файла W:\EAC\03 - Життя у мінорі.wav

     Пиковый уровень 71.8 %
     Качество трека 100.0 %
     CRC копии 2523FEED
     Копирование... OK

Трек  4

     Имя файла W:\EAC\04 - Гуляю.wav

     Пиковый уровень 68.2 %
     Качество трека 100.0 %
     CRC копии E08ED9FD
     Копирование... OK

Трек  5

     Имя файла W:\EAC\05 - Сльози.wav

     Пиковый уровень 71.5 %
     Качество трека 100.0 %
     CRC копии D6C61F0B
     Копирование... OK

Трек  6

     Имя файла W:\EAC\06 - Літай.wav

     Пиковый уровень 63.7 %
     Качество трека 100.0 %
     CRC копии B7DCC240
     Копирование... OK

Трек  7

     Имя файла W:\EAC\07 - День народження.wav

     Пиковый уровень 64.6 %
     Качество трека 100.0 %
     CRC копии 2F296117
     Копирование... OK

Трек  8

     Имя файла W:\EAC\08 - Лови мене.wav

     Пиковый уровень 66.7 %
     Качество трека 100.0 %
     CRC копии 57A0251C
     Копирование... OK

Трек  9

     Имя файла W:\EAC\09 - Білий танець.wav

     Пиковый уровень 63.8 %
     Качество трека 99.9 %
     CRC копии C74BC4F5
     Копирование... OK

Трек 10

     Имя файла W:\EAC\10 - Тік-Так.wav

     Пиковый уровень 68.5 %
     Качество трека 99.9 %
     CRC копии 24D616AE
     Копирование... OK

Ошибок не произошло

Конец отчёта
Зміст CUE
Код:
REM GENRE Folk/Rock
REM DATE 2005
REM DISCID A50D1F0B
REM COMMENT "ExactAudioCopy v0.99pb5"
PERFORMER "Таліта Кум"
TITLE "Гаряча і гірка"
FILE "01 - Гаряча і гірка.wav" WAVE
  TRACK 01 AUDIO
    TITLE "Гаряча і гірка"
    PERFORMER "Таліта Кум"
    FLAGS DCP
    INDEX 01 00:00:00
FILE "02 - Що знаєш ти про дівчат.wav" WAVE
  TRACK 02 AUDIO
    TITLE "Що знаєш ти про дівчат"
    PERFORMER "Таліта Кум"
    FLAGS DCP
    INDEX 01 00:00:00
FILE "03 - Життя у мінорі.wav" WAVE
  TRACK 03 AUDIO
    TITLE "Життя у мінорі"
    PERFORMER "Таліта Кум"
    FLAGS DCP
    INDEX 01 00:00:00
FILE "04 - Гуляю.wav" WAVE
  TRACK 04 AUDIO
    TITLE "Гуляю"
    PERFORMER "Таліта Кум"
    FLAGS DCP
    INDEX 01 00:00:00
FILE "05 - Сльози.wav" WAVE
  TRACK 05 AUDIO
    TITLE "Сльози"
    PERFORMER "Таліта Кум"
    FLAGS DCP
    INDEX 01 00:00:00
FILE "06 - Літай.wav" WAVE
  TRACK 06 AUDIO
    TITLE "Літай"
    PERFORMER "Таліта Кум"
    FLAGS DCP
    INDEX 01 00:00:00
FILE "07 - День народження.wav" WAVE
  TRACK 07 AUDIO
    TITLE "День народження"
    PERFORMER "Таліта Кум"
    FLAGS DCP
    INDEX 01 00:00:00
FILE "08 - Лови мене.wav" WAVE
  TRACK 08 AUDIO
    TITLE "Лови мене"
    PERFORMER "Таліта Кум"
    FLAGS DCP
    INDEX 01 00:00:00
FILE "09 - Білий танець.wav" WAVE
  TRACK 09 AUDIO
    TITLE "Білий танець"
    PERFORMER "Таліта Кум"
    FLAGS DCP
    INDEX 01 00:00:00
FILE "10 - Тік-Так.wav" WAVE
  TRACK 10 AUDIO
    TITLE "Тік-Так"
    PERFORMER "Таліта Кум"
    FLAGS DCP
    INDEX 01 00:00:00
  TRACK 11 MODEx/2xxx
    TITLE "video 'Гаряча i гiрка'"
    PERFORMER "Таліта Кум"
    INDEX 00 03:12:46
Шоу бізнес! (2007)

Шоу бізнес! — третій і останній студійний альбом українського музичного поп-рок-гурту «Таліта Кум». Виданий 2007 року.

Таліта Кум не поступається своєю звичкою – і це добре – випускати різнокольорові альбоми. "Шоу бізнес!" – це знову калейдоскоп настроїв, інтонацій, стилів. Від диско до рок-мейнстриму, від ніжної любовної лірики до фрейдистського стьобу, від неквапливої балади до весняного драйву – запросто. Палітру альбому можна було б назвати послідовною у своїй непослідовності, якби не було однієї наскрізної теми, навколо якої і в’ються всі вітри. Це – кохання. І треба віддати належне Юлії Міщенко як авторці текстів – вона знову зуміла створити об’ємний погляд, поєднати різні кути зору. Начебто в словах немає нічого надто складного, але в кожному тексті є свої нюанси, вдало підтримані музикою. Яку пісню не візьми – це окрема яскрава картинка, котра, тим не менш, органічно вписана у загальну структуру платівки. Власне, такий підхід вже можна вважати характерним для гурту. Але не скажеш, що Таліта Кум просто розробляє і поглиблює попередні досягнення. Стосовно звучання – явно відбуваються пошуки чогось нового. І, здається, напрямок пошуків обрано вірно – альбом залишає по собі присмак радісної легкості.

Тривалість: 39:42
01 - Упс!
02 - Джек-пот
03 - Шоу бізнес!
04 - Просто бути людьми
05 - Моє кохання
06 - [він] і [вона]
07 - Романс
08 - Білим снігом
09 - Гаряча і гірка
10 - Позитив
Звіт EAC
Код:
Exact Audio Copy V0.99 prebeta 4 from 23. January 2008

Отчёт EAC об извлечении, выполненном 26. августа 2008, 21:12

Таліта Кум / Шоу бізнес!

Дисковод: Optiarc DVD RW AD-7173S   Adapter: 1  ID: 0

Режим чтения                 : Достоверность
Использование точного потока : Да
Отключение кэша аудио        : Да
Использование указателей C2  : Нет

Коррекция смещения при чтении                     : 48
Способность читать области Lead-in и Lead-out     : Нет
Заполнение пропущенных сэмплов тишиной            : Да
Удаление блоков с тишиной в начале и конце        : Нет
При вычислениях CRC использовались нулевые сэмплы : Да
Интерфейс                                         : Встроенный Win32-интерфейс для Win NT/2000
Обработка зазоров                                 : Добавлено к предыдущему треку

Выходной формат          : Пользовательский кодировщик
Выбранный битрейт        : 768 kBit/s
Качество                 : Высокий
Добавление ID3-тэга      : Нет
Утилита сжатия           : C:\Program Files\Exact Audio Copy\FLAC\FLAC.EXE
Дополнительные параметры : -6 -V -T "ARTIST=%a" -T "TITLE=%t" -T "ALBUM=%g" -T "DATE=%y" -T "TRACKNUMBER=%n" -T "GENRE=%m" -T "COMMENT=%e" %s -o %d

TOC извлечённого CD

     Трек |   Старт  | Длительность | Начальный сектор | Конечный сектор
    ---------------------------------------------------------------------
       1  |  0:00.00 |    3:41.43   |           0      |      16617
       2  |  3:41.43 |    3:45.31   |       16618      |      33523
       3  |  7:26.74 |    3:50.44   |       33524      |      50817
       4  | 11:17.43 |    4:48.03   |       50818      |      72420
       5  | 16:05.46 |    4:34.29   |       72421      |      92999
       6  | 20:40.00 |    4:09.41   |       93000      |     111715
       7  | 24:49.41 |    3:10.56   |      111716      |     126021
       8  | 28:00.22 |    3:12.05   |      126022      |     140426
       9  | 31:12.27 |    3:11.09   |      140427      |     154760
      10  | 34:23.36 |    5:18.39   |      154761      |     178649
      11  | 42:14.00 |   23:40.61   |      190050      |     296610

Трек  1

     Имя файла W:\EAC\01 - Упс!.wav

     Длина предзазора  0:00:02.00

     Пиковый уровень 98.8 %
     Качество трека 100.0 %
     CRC копии 837C6813
     Копирование... OK

Трек  2

     Имя файла W:\EAC\02 - Джек-пот.wav

     Длина предзазора  0:00:02.00

     Пиковый уровень 98.8 %
     Качество трека 100.0 %
     CRC копии A554A07F
     Копирование... OK

Трек  3

     Имя файла W:\EAC\03 - Шоу бізнес!.wav

     Длина предзазора  0:00:02.00

     Пиковый уровень 98.8 %
     Качество трека 100.0 %
     CRC копии 9CDF06E8
     Копирование... OK

Трек  4

     Имя файла W:\EAC\04 - Просто бути людьми.wav

     Длина предзазора  0:00:02.00

     Пиковый уровень 98.8 %
     Качество трека 100.0 %
     CRC копии 3213653D
     Копирование... OK

Трек  5

     Имя файла W:\EAC\05 - Моє кохання.wav

     Длина предзазора  0:00:02.00

     Пиковый уровень 98.8 %
     Качество трека 100.0 %
     CRC копии 59BCC026
     Копирование... OK

Трек  6

     Имя файла W:\EAC\06 - [він] і [вона].wav

     Длина предзазора  0:00:02.00

     Пиковый уровень 98.8 %
     Качество трека 100.0 %
     CRC копии 0EA3E85D
     Копирование... OK

Трек  7

     Имя файла W:\EAC\07 - Романс.wav

     Длина предзазора  0:00:02.00

     Пиковый уровень 98.8 %
     Качество трека 100.0 %
     CRC копии D6F2013D
     Копирование... OK

Трек  8

     Имя файла W:\EAC\08 - Білим снігом.wav

     Длина предзазора  0:00:02.00

     Пиковый уровень 98.8 %
     Качество трека 100.0 %
     CRC копии C5AA25A9
     Копирование... OK

Трек  9

     Имя файла W:\EAC\09 - Гаряча і гірка.wav

     Длина предзазора  0:00:02.00

     Пиковый уровень 98.8 %
     Качество трека 100.0 %
     CRC копии D902EF9F
     Копирование... OK

Трек 10

     Имя файла W:\EAC\10 - Позитив.wav

     Длина предзазора  0:00:02.00

     Пиковый уровень 75.7 %
     Качество трека 100.0 %
     CRC копии 920264B2
     Копирование... OK

Ошибок не произошло

Конец отчёта
Зміст CUE
Код:
REM GENRE Folk/Rock
REM DATE 2007
REM DISCID 9F0F720B
REM COMMENT "ExactAudioCopy v0.99pb4"
PERFORMER "Таліта Кум"
TITLE "Шоу бізнес!"
FILE "01 - Упс!.wav" WAVE
  TRACK 01 AUDIO
    TITLE "Упс!"
    PERFORMER "Таліта Кум"
    FLAGS DCP
    INDEX 01 00:00:00
  TRACK 02 AUDIO
    TITLE "Джек-пот"
    PERFORMER "Таліта Кум"
    FLAGS DCP
    INDEX 00 03:39:43
FILE "02 - Джек-пот.wav" WAVE
    INDEX 01 00:00:00
  TRACK 03 AUDIO
    TITLE "Шоу бізнес!"
    PERFORMER "Таліта Кум"
    FLAGS DCP
    INDEX 00 03:43:31
FILE "03 - Шоу бізнес!.wav" WAVE
    INDEX 01 00:00:00
  TRACK 04 AUDIO
    TITLE "Просто бути людьми"
    PERFORMER "Таліта Кум"
    FLAGS DCP
    INDEX 00 03:48:44
FILE "04 - Просто бути людьми.wav" WAVE
    INDEX 01 00:00:00
  TRACK 05 AUDIO
    TITLE "Моє кохання"
    PERFORMER "Таліта Кум"
    FLAGS DCP
    INDEX 00 04:46:03
FILE "05 - Моє кохання.wav" WAVE
    INDEX 01 00:00:00
  TRACK 06 AUDIO
    TITLE "[він] і [вона]"
    PERFORMER "Таліта Кум"
    FLAGS DCP
    INDEX 00 04:32:29
FILE "06 - [він] і [вона].wav" WAVE
    INDEX 01 00:00:00
  TRACK 07 AUDIO
    TITLE "Романс"
    PERFORMER "Таліта Кум"
    FLAGS DCP
    INDEX 00 04:07:41
FILE "07 - Романс.wav" WAVE
    INDEX 01 00:00:00
  TRACK 08 AUDIO
    TITLE "Білим снігом"
    PERFORMER "Таліта Кум"
    FLAGS DCP
    INDEX 00 03:08:56
FILE "08 - Білим снігом.wav" WAVE
    INDEX 01 00:00:00
  TRACK 09 AUDIO
    TITLE "Гаряча і гірка"
    PERFORMER "Таліта Кум"
    FLAGS DCP
    INDEX 00 03:10:05
FILE "09 - Гаряча і гірка.wav" WAVE
    INDEX 01 00:00:00
  TRACK 10 AUDIO
    TITLE "Позитив"
    PERFORMER "Таліта Кум"
    FLAGS DCP
    INDEX 00 03:09:09
FILE "10 - Позитив.wav" WAVE
    INDEX 01 00:00:00
  TRACK 11 MODEx/2xxx
    TITLE "Track11"
    PERFORMER "Таліта Кум"
    INDEX 00 05:18:39
Загальна тривалість: 2:02:55
Мова: Українська
Аудіо формат: 16/44,1
Аудіо-кодек: FLAC
Бітрейт: 834-1094 kbps
Джерело: Власний ріп
Додаткова інформація:
Таліта Кум — український поп-рок-гурт. Незмінний лідер, соліст й автор пісень гурту — Юлія Міщенко. Гурт було засновано 13 квітня 2001, у 2007—2009 роках у творчості колективу була перерва, після чого 2009 року він остаточно припинив активну діяльність.

Назва гурту походить з арамейської мови, де означає «Дівчино, підведись!» (цитата з Біблії).


Якщо Ви справді бажаєте підтримати українське - після прослуховування, якщо музика Вам сподобалась, придбайте ліцензійний диск.
Підтримаймо вітчизняних виконавців!


Золотий реліз (завантажене не впливає на рейтинг)
 Трекер:    Зареєстрований   

Завантажити / скачати українську музику



відео для новачків



 Зареєстрований:   2017-03-22 03:08
 Розмір:   1013 MB 
 Оцінка музики:   10/10 (Голосів: 10)
   
drtato 
Свій


З нами з: 28.10.10
Востаннє: 17.10.17
Повідомлень: 127

2017-03-23 15:09  
Дякую пане Lyolic за реліз. Якісно зроблений реліз ! Молодець !
gosha.samovar 
VIP


З нами з: 08.09.10
Востаннє: 17.10.17
Повідомлень: 417

2017-04-02 11:28  
Один з тих гуртів, за якими шкодуєш.
Lyolic 
Свій


З нами з: 04.08.09
Востаннє: 18.10.17
Повідомлень: 72

2017-04-02 15:12  
gosha.samovar
Дійсно, шкода, що припинили діяльність. Але радує, що хоч не як Кузьма...
Може вона ще повернеться до творчості Happy

fv007 
VIP


З нами з: 01.01.10
Востаннє: 18.10.17
Повідомлень: 454

2017-04-18 07:32  
Цей реліз - https://toloka.to/t4052 мабуть уже можна видалити.
lpershyi 
Попереджень: 2
Попереджень: 2 


З нами з: 04.01.11
Востаннє: 03.08.17
Повідомлень: 2742

2017-04-19 03:27  
fv007 написано:
https://toloka.to/t4052
Для чого видаляти, якщо тут і там відсутня повна дискографія, ще й всіх бонусних речей та відеокліпів, немає.
ssTAss 
Модератор музики


З нами з: 05.07.08
Востаннє: 19.10.17
Повідомлень: 12093

2017-04-19 13:29  
Lyolic
гляньте на інші дискографії і оформіть належно (обкладинку до кожного альбому, інфу, бажано ще й лог)

Lyolic 
Свій


З нами з: 04.08.09
Востаннє: 18.10.17
Повідомлень: 72

2017-04-19 18:34  
ssTAss
Легко Happy Ще щось?

Доречі, не всі "Перевірені" дискографії оформлені "належно" Happy

Додано через 4 хвилини 40 секунд:

lpershyi
Вам перевидання одного диску не вистачає? Із бонусів, на скільки пам'ятаю, там нічого нема. А кліпи зазвичай на CD не найкращої якості - на YouTube можна знайти краще...

ssTAss 
Модератор музики


З нами з: 05.07.08
Востаннє: 19.10.17
Повідомлень: 12093

2017-04-19 21:25  
Lyolic написано:
А кліпи зазвичай на CD не найкращої якості - на YouTube можна знайти краще...

луслес - це копія диску і суть тут не в якості кліпів
бажано, щоб Ви додали їх
Lyolic написано:
не всі "Перевірені" дискографії оформлені "належно"

маєте зауваги до котрогось з релізів, то прошу написати

Lyolic 
Свій


З нами з: 04.08.09
Востаннє: 18.10.17
Повідомлень: 72

2017-04-19 22:59  
Цитата:
луслес - це копія диску і суть тут не в якості кліпів
бажано, щоб Ви додали їх

Я так розомумію, мається на увазі lossless Happy
То ніякого відношення до "копії диску" воно не має. Стиснення без втрат
В нашому випадку (випадку з CD) це стиснення аудіо даних без втрат.
А відео дані на диску йдуть як бонус в окремій зоні, більш того, вже з величезними втратами...
Якщо робити копію диску, то це щось на кшталт .iso, .img etc
Ну це так, між іншим...
Мені не шкода викласти кліпи, але є одне але... Навряд мій OD зараз прочитає диски. Він вже дуже давно перестав записувати диски, а декілька років тому і читати став через раз. Купувати новий зараз просто немає сенсу Happy

Цитата:
маєте зауваги до котрогось з релізів, то прошу написати

кхем... До Вас Happy
Перша ж дискографія, що потрапила на очі https://toloka.to/t5536
Цитата:
(обкладинку до кожного альбому, інфу, бажано ще й лог)

Я ні на що не натякаю, просто так попалось Happy

ssTAss 
Модератор музики


З нами з: 05.07.08
Востаннє: 19.10.17
Повідомлень: 12093

2017-04-19 23:40  
Lyolic написано:

кхем... До Вас
Перша ж дискографія, що потрапила на очі https://toloka.to/t5536

прочитайте уважно коментарі до теми і все зрозумієте
обкладинки (були.. хостинг вмер) і інфа є, лог - за бажанням
та й спершу це був потрековий реліз без логів, потім змінив на кращий
p.s. і надалі попрошу без "кхем".. не встидайтесь, вказуйте, нам толкові люди на Толоці потрібні, а то все як не фіцко так ще якийсь капітан попадається))
чекаємо більше релізів від Вас

Додано через 51 секунду:

Lyolic написано:
Бітрейт: lossless

ось тут вкажіть числове значення (межі)

Lyolic 
Свій


З нами з: 04.08.09
Востаннє: 18.10.17
Повідомлень: 72

2017-04-20 00:15  
Цитата:
ось тут вкажіть числове значення (межі)

Як то кажуть на британщині, вот фо? Happy
Бітрейт в лослес-кодеках - це чисто технічна величина, і на якість ніяк не впливає...
То в лосі кодер, спираючись на заданий бітрейт або якість, вирізає все, що вважає неважливим, і робить не аудіо дані а їх опис Happy А декодер, спираючись на ці дані, намагається вгадати, яка там була форма сигналу Happy Тому тут можна судити про якість по бітрейту, позаяк більше даних (вище бітрейт) - краще опис.

ssTAss 
Модератор музики


З нами з: 05.07.08
Востаннє: 19.10.17
Повідомлень: 12093

2017-04-20 00:18  
Lyolic написано:

Бітрейт в лослес-кодеках - це чисто технічна величина, і на якість ніяк не впливає...
То в лосі кодер, спираючись на заданий бітрейт або якість, вирізає все, що вважає неважливим, і робить не аудіо дані а їх опис А декодер, спираючись на ці дані, намагається вгадати, яка там була форма сигналу Тому тут можна судити про якість по бітрейту, позаяк більше даних (вище бітрейт) - краще опис.

мені це все відомо, але повторю
ssTAss написано:
вкажіть числове значення (межі)

Lyolic 
Свій


З нами з: 04.08.09
Востаннє: 18.10.17
Повідомлень: 72

2017-04-20 00:36  
Цитата:
мені це все відомо, але повторю

Раз так хочеться, то будь ласка Happy

ssTAss 
Модератор музики


З нами з: 05.07.08
Востаннє: 19.10.17
Повідомлень: 12093

2017-04-20 01:37  
Lyolic написано:
FILE "01 - як на хмарах.wav" WAVE

цей куе читатися не буде (хіба для запису, після перепакування файлів у вав)
краще б робили ріп образом, мороки з ним менше
але поки добре і те, що маємо
p.s. якщо раптом хтось викладе повні ріпи (образ+куе+скани+кліпи), то Ваш реліз як і попереднього автора піде в архів

Lyolic 
Свій


З нами з: 04.08.09
Востаннє: 18.10.17
Повідомлень: 72

2017-04-20 02:21  
Цитата:
хіба для запису

А навіщо він ще потрібен в потрековому релізі...
Цитата:
краще б робили ріп образом, мороки з ним менше

Не люблю я образи Happy Як на мене, мороки з ними більше...

zawarudo 
Свій


З нами з: 20.11.16
Востаннє: 18.10.17
Повідомлень: 60

2017-04-20 09:59  
Не треба образів. Весь цивілізований світ давно використовує треки, бо так є можливість вантажити ті пісні, які подобаються, замість купи непотрібних треків.
civ 
VIP


З нами з: 16.02.11
Востаннє: 18.10.17
Повідомлень: 458

2017-04-20 22:52  
Весь "цивілізований світ" треки не качає з торентів, а купує в онлайн магазинах. Тому, ясна річ, там кожен трек лежить окремо.
А образ CD - це як архів. Архів копії диска.
Зробити потрековий реліз - це як взяти купюру та порізати на шматки. З 100-ні вирізати Шевченка, а решту купюри взагалі викинути...

zawarudo 
Свій


З нами з: 20.11.16
Востаннє: 18.10.17
Повідомлень: 60

2017-04-21 01:10  
Ну можна піти ще далі Happy Музики створюють та записують альбоми піснями, а не образами. Та навіщо той ті архіви, якщо я музику слухаю, а не архівую її. Та й так ліпше. Наприклав, схотілося мені послухати пісню "[він] і [вона]" з альбому "Шоу бізнес!", але мені не треба весь альбом. Ось треки і внагоді стали. Та й роздавати далі можна. З образів треба різати потрібний трек, та ще й вантажити його весь. А сіда може й не бути чи ще шось. Тож таке діло.
Ваш часовий пояс: GMT + 2 Години

Нова тема   Відповісти