Непрохані гості (Intruders) / Shut In (2015) Remux 1080p Ukr/Eng

Нові коментарі

Нова тема   Відповісти
Автор Повідомлення
famous37 
Відео Гуртом - фільмокрай
Відео Гуртом - фільмокрай


З нами з: 16.11.08
Востаннє: 23.10.17
Повідомлень: 723

2017-03-21 22:34  
Непрохані гості (Intruders) / Shut In (2015) Remux 1080p Ukr/Eng

Непрохані гості (Intruders) / Shut In (2015) Remux 1080p Ukr/Eng


Жанр: драма, психологічний, трилер, жахи
Країна: США



Кінокомпанія: Vicarious Entertainment, Black Fish Films, Campbell Grobman Films, Jeff Rice Films
Режисер: Адам Шиндлер
Актори: Рорі Калкін, Летісія Хіменез, Джек Кесі, Тімоті Т. МакКінні, Джошуа Мікель, Бет Рісграф, Мартін Старр

Сюжет:
Молода дівчина Анна (Бет Рісграф) не може залишати стіни власного будинку через психічне захворювання під назвою агорафобія. Після смерті брата їй стало особливо скрутно, адже вона лишилася абсолютно одна. Іноді до неї навідуються її подруги, щоб розважити та утішити, а знайомий хлопець допомагає з продуктами. Одного разу до неї в дім вриваються троє грабіжників, і Анна з відомих причин не може ні втекти, ні покликати на допомогу. Але зовсім скоро з’ясовується, що у дівчини є щось страшніше, ніж психічне захворювання. І це стане справжнім шоком для непроханих гостей.


Тривалість: 01:33:00
Якість: Remux 1080p [US Transfer]
Відео:
кодек:
розмір кадру: 1920х1080
бітрейт: 27.9 мб/с

Аудіо # 1:
мова: українська
переклад: багатоголосий закадровий
кодек: 5.1
бітрейт: 640 кб/с
Власне зведення у форматі 5.1 =)

Аудіо # 2:
мова: англійська
переклад: оригінал
кодек: -HD 5.1
бітрейт: 1772 кб/с

За українську звукову доріжку у форматі 2.0 подяка AngryBirdsUA
Info
General
Unique ID : 229472714483728061249882553502462271539 (0xACA2D65456A83417809CFC61F5EE6033)
Complete name : D:\Фільми\Жахи\Shut In (Intruders) (2015) Remux 1080p [Ukr,Eng] by famous37 [Hurtom].
Format :
Format version : Version 4 / Version 2
File size : 19.1 GiB
Duration : 1 h 30 min
Overall bit rate : 30.3 Mb/s
Movie name : Shut In (Intruders) (2015) Remux 1080p [Ukr,Eng] by famous37 [Hurtom]
Encoded date : UTC 2017-03-22 23:56:59
Writing application : mkvmerge v9.8.0 ('Kuglblids') 64bit
Writing library : libebml v1.3.4 + libmatroska v1.4.5

Video
ID : 1
Format : AVC
Format/Info : Advanced Video Codec
Format profile : High@L4.1
Format settings, CABAC : Yes
Format settings, ReFrames : 4 frames
Codec ID : V_MPEG4/ISO/AVC
Duration : 1 h 30 min
Bit rate mode : Constant
Bit rate : 27.9 Mb/s
Nominal bit rate : 33.0 Mb/s
Width : 1 920 pixels
Height : 1 080 pixels
Display aspect ratio : 16:9
Frame rate mode : Constant
Frame rate : 24.000 FPS
Standard : NTSC
Color space : YUV
Chroma subsampling : 4:2:0
Bit depth : 8 bits
Scan type : Progressive
Bits/(Pixel*Frame) : 0.561
Stream size : 17.6 GiB (92%)
Language : English
Default : Yes
Forced : No
Color range : Limited
Color primaries : BT.709
Transfer characteristics : BT.709
Matrix coefficients : BT.709

Audio #1
ID : 2
Format : AC-3
Format/Info : Audio Coding 3
Format settings, Endianness : Big
Codec ID : A_AC3
Duration : 1 h 30 min
Bit rate mode : Constant
Bit rate : 640 kb/s
Channel(s) : 6 channels
Channel positions : Front: L C R, Side: L R, LFE
Sampling rate : 48.0 kHz
Frame rate : 31.250 FPS (1536 spf)
Bit depth : 16 bits
Compression mode : Lossy
Stream size : 413 MiB (2%)
Title : 5.1 @ 640 kbps by famous37
Language : Ukrainian
Service kind : Complete Main
Default : Yes
Forced : Yes

Audio #2
ID : 3
Format :
Format/Info : Digital Theater Systems
Format profile : MA / Core
Mode : 16
Format settings, Endianness : Big
Codec ID : A_DTS
Duration : 1 h 30 min
Bit rate mode : Variable / Constant
Bit rate : 1 772 kb/s / 1 509 kb/s
Channel(s) : 6 channels
Channel positions : Front: L C R, Side: L R, LFE
Sampling rate : 48.0 kHz
Frame rate : 93.750 FPS (512 spf)
Bit depth : 16 bits
Compression mode : Lossless / Lossy
Stream size : 1.12 GiB (6%)
Title : Original
Language : English
Default : No
Forced : No

Menu
00:00:00.000 : en:Chapter 1
00:10:41.266 : en:Chapter 2
00:15:32.265 : en:Chapter 3
00:23:45.340 : en:Chapter 4
00:30:56.563 : en:Chapter 5
00:36:01.367 : en:Chapter 6
00:45:36.317 : en:Chapter 7
00:48:48.509 : en:Chapter 8
00:54:51.455 : en:Chapter 9
01:01:46.244 : en:Chapter 10
01:08:32.608 : en:Chapter 11
01:16:11.609 : en:Chapter 12
01:22:20.143 : en:Chapter 13
01:29:52.011 : en:Chapter 14
01:36:46.092 : en:Chapter 15
01:42:08.497 : en:Chapter 16
Скріншоти
Джерело:
Особиста оцінка: 10 - без зайвих вагань рекомендую всім!

Завантажуйте і не забувайте про коментарі та подяки, адже на цьому будується наше спілкування
і не дає довести процес обміну фільмами до бездушного автоматизму!!!

Будь ласка, залишайтеся на роздачі!
Діліться з ближніми!




Приємного перегляду! =)


Золотий реліз (завантажене не впливає на рейтинг)
 Трекер:    Зареєстрований   

Завантажити / скачати фільм українською



відео для новачків



 Зареєстрований:   2017-03-25 19:16
 Розмір:   19.13 GB 
 Оцінка фільму:   9/10 (Голосів: 6)
   
Інші релізи
   Непрохані гості / Shut In (2015) AngryBirdsUA  7 / 0   1.46 GB   2016-04-17 20:49 
boroznaya 
VIP


З нами з: 02.11.12
Востаннє: 23.10.17
Повідомлень: 2329

2017-03-23 19:09  
Сильно! Я б таке подивилась. З нетерпінням чекаю на реліз!
bot 
робот


З нами з: 30.09.07
Востаннє: 26.05.05
Повідомлень: 17730

2017-03-25 19:16  
Тему перенесено з Анонси релізів до форуму Фільми в HD


famous37

kinaxem 
Свій


З нами з: 21.12.16
Востаннє: 23.10.17
Повідомлень: 104

2017-03-25 21:00  
Мабуть варто було додати й 2.0 підігнаний під бд.
famous37 
Відео Гуртом - фільмокрай
Відео Гуртом - фільмокрай


З нами з: 16.11.08
Востаннє: 23.10.17
Повідомлень: 723

2017-03-25 21:17  
kinaxem, там стерео із моно, піки завищені. Тут нормалізував, мені сподобалося звучання. Якщо Вам треба, то зробіть норм. 2.0, не хочу робите те чого мені не треба. =)
kinaxem 
Свій


З нами з: 21.12.16
Востаннє: 23.10.17
Повідомлень: 104

2017-03-25 22:13  
famous37 написано:
Якщо Вам треба, то зробіть норм.

Вибачте, якщо я Вас образив...

famous37 
Відео Гуртом - фільмокрай
Відео Гуртом - фільмокрай


З нами з: 16.11.08
Востаннє: 23.10.17
Повідомлень: 723

2017-03-25 22:19  
kinaxem написано:
Вибачте, якщо я Вас образив...

Зовсім не образили. Хочу аби народ приєднувався до роботи. Чим більше, тим ліпше. =)

Stalker-Neo 
Частий відвідувач


З нами з: 28.01.12
Востаннє: 31.08.17
Повідомлень: 49

2017-04-01 17:51  
Важкувате кіно. Елементів жаху не побачив. Описана життєва ситуація, без будь-чого потойбічного або паранормального. Нічого особливо незвичайного немає, кожен бився за своє життя. 4/10.
Ваш часовий пояс: GMT + 2 Години

Нова тема   Відповісти