Підлітки-мутанти. Черепашки-ніндзя 2 / Teenage Mutant Ninja Turtles: Out of the Shadows (2016) AVC

Нові коментарі

Нова тема   Відповісти
Автор Повідомлення
Anonymous 







2017-03-21 16:23  
Підлітки-мутанти. Черепашки-ніндзя 2 / Teenage Mutant Ninja Turtles: Out of the Shadows (2016) AVC


Підлітки-мутанти. Черепашки-ніндзя 2 / Teenage Mutant Ninja Turtles: Out of the Shadows (2016) AVC
Альтернативні постери
Підлітки-мутанти. Черепашки-ніндзя 2 / Teenage Mutant Ninja Turtles: Out of the Shadows (2016) AVC
Підлітки-мутанти. Черепашки-ніндзя 2 / Teenage Mutant Ninja Turtles: Out of the Shadows (2016) AVC
Підлітки-мутанти. Черепашки-ніндзя 2 / Teenage Mutant Ninja Turtles: Out of the Shadows (2016) AVC
Підлітки-мутанти. Черепашки-ніндзя 2 / Teenage Mutant Ninja Turtles: Out of the Shadows (2016) AVC
Підлітки-мутанти. Черепашки-ніндзя 2 / Teenage Mutant Ninja Turtles: Out of the Shadows (2016) AVC
Підлітки-мутанти. Черепашки-ніндзя 2 / Teenage Mutant Ninja Turtles: Out of the Shadows (2016) AVC
Підлітки-мутанти. Черепашки-ніндзя 2 / Teenage Mutant Ninja Turtles: Out of the Shadows (2016) AVC
Підлітки-мутанти. Черепашки-ніндзя 2 / Teenage Mutant Ninja Turtles: Out of the Shadows (2016) AVC
Підлітки-мутанти. Черепашки-ніндзя 2 / Teenage Mutant Ninja Turtles: Out of the Shadows (2016) AVC
Підлітки-мутанти. Черепашки-ніндзя 2 / Teenage Mutant Ninja Turtles: Out of the Shadows (2016) AVC
Підлітки-мутанти. Черепашки-ніндзя 2 / Teenage Mutant Ninja Turtles: Out of the Shadows (2016) AVC
Підлітки-мутанти. Черепашки-ніндзя 2 / Teenage Mutant Ninja Turtles: Out of the Shadows (2016) AVC
Жанр: фентезі, бойовик, комедія, фантастика, пригоди
Країна: США , Гонконґ , Китай , Канада

Кінокомпанія: Gama Entertainment Partners, Nickelodeon Movies, Paramount Pictures, Platinum Dunes
Режисер: Дейв Ґрін
Актори: Меґан Фокс, Стівен Амелл, Алан Річсон, Вілл Арнетт, Ноель Фішер, Стефен Фарреллі

Сюжет:
Довгий час черепашки-ніндзя ховалися від людей в лабіринтах міської каналізації. Протягом декількох років вчитель Сплінтер навчав їх бойовим мистецтвам і прививав їм почуття справедливості. В один прекрасний момент їм довелося піднятися наверх, щоб врятувати Нью-Йорк від Шредера, ватажка Клану Фут, що захопив владу в Нью-Йорку. Разом з відважним репортером Ейпріл і її оператором Верном, безстрашні воїни змогли здобути перемогу і очистити рідне місто від злочинності. Леонардо, Мікеланджело, Рафаель і Донателло знайшли своє призначення в цьому світі і стали захисниками свого міста. Вони навели порядок у Нью-Йорку і з чистою совістю могли відправитися на спокій, але одного разу їм знову довелося зіткнутися з могутнім ворогом, що загрожує їх місту...

Рейтинг MPAA: PG-13 - дітям до 13 років рекомендується присутність батьків
Вікова категорія: 12+
Тривалість: 01:52:08
Якість: AVC
Відео:
кодек:
розмір кадру: 816x340
бітрейт: 2298 кб/с

Аудіо:
мова: українська
переклад: професійний дубльований
кодек: 5.1
бітрейт: 448 кб/с
Скріншоти
Звіт Info
Код:
General
Unique ID                      : 240649026518573960981181579714254860180 (0xB50B510E6663CF5CA3A61E8055C7EF94)
Complete name                  : D:\Teenage Mutant Ninja Turtles. Out of the Shadows (2016) AVC.
Format                         :
Format version                 : Version 4 / Version 2
File size                      : 2.15 GiB
Duration                       : 1h 52mn
Overall bit rate               : 2 747 Kbps
Movie name                     : Teenage Mutant Ninja Turtles: Out of the Shadows (2016)
Encoded date                   : UTC 2017-03-21 12:13:12
Writing application            : mkvmerge v9.3.1 ('Mask Machine') 64bit
Writing library                : libebml v1.3.4 + libmatroska v1.4.5
DURATION                       : 01:52:07.584000000
NUMBER_OF_FRAMES               : 210237
NUMBER_OF_BYTES                : 376744704
_STATISTICS_WRITING_APP        : mkvmerge v9.3.1 ('Mask Machine') 64bit
_STATISTICS_WRITING_DATE_UTC   : 2017-03-21 12:13:12
_STATISTICS_TAGS               : BPS DURATION NUMBER_OF_FRAMES NUMBER_OF_BYTES

Video
ID                             : 1
Format                         : AVC
Format/Info                    : Advanced Video Codec
Format profile                 : [email protected]
Format settings, CABAC         : Yes
Format settings, ReFrames      : 12 frames
Codec ID                       : V_MPEG4/ISO/AVC
Duration                       : 1h 52mn
Bit rate                       : 2 298 Kbps
Width                          : 816 pixels
Height                         : 340 pixels
Display aspect ratio           : 2.40:1
Frame rate mode                : Constant
Frame rate                     : 23.976 fps
Color space                    : YUV
Chroma subsampling             : 4:2:0
Bit depth                      : 8 bits
Scan type                      : Progressive
Bits/(Pixel*Frame)             : 0.345
Stream size                    : 1.76 GiB (82%)
Title                          : potroks
Writing library                : core 146 r2538 121396c
Encoding settings              : cabac=1 / ref=12 / deblock=1:-2:-2 / analyse=0x3:0x113 / me=umh / subme=11 / psy=1 / psy_rd=1.05:0.15 / mixed_ref=1 / me_range=48 / chroma_me=1 / trellis=2 / 8x8dct=1 / cqm=0 / deadzone=21,11 / fast_pskip=0 / chroma_qp_offset=-3 / threads=9 / lookahead_threads=2 / sliced_threads=0 / nr=0 / decimate=0 / interlaced=0 / bluray_compat=0 / constrained_intra=0 / bframes=13 / b_pyramid=2 / b_adapt=2 / b_bias=0 / direct=3 / weightb=1 / open_gop=0 / weightp=2 / keyint=240 / keyint_min=23 / scenecut=40 / intra_refresh=0 / rc_lookahead=60 / rc=2pass / mbtree=0 / bitrate=2298 / ratetol=1.0 / qcomp=0.70 / qpmin=0 / qpmax=69 / qpstep=4 / cplxblur=20.0 / qblur=0.5 / vbv_maxrate=14000 / vbv_bufsize=14000 / nal_hrd=none / filler=0 / ip_ratio=1.35 / pb_ratio=1.25 / aq=1:0.80
Language                       : English
Default                        : Yes
Forced                         : No
DURATION                       : 01:52:06.773000000
NUMBER_OF_FRAMES               : 161281
NUMBER_OF_BYTES                : 1932120573
_STATISTICS_WRITING_APP        : mkvmerge v9.3.1 ('Mask Machine') 64bit
_STATISTICS_WRITING_DATE_UTC   : 2017-03-21 12:13:12
_STATISTICS_TAGS               : BPS DURATION NUMBER_OF_FRAMES NUMBER_OF_BYTES

Audio
ID                             : 2
Format                         : AC-3
Format/Info                    : Audio Coding 3
Mode extension                 : CM (complete main)
Format settings, Endianness    : Big
Codec ID                       : A_AC3
Duration                       : 1h 52mn
Bit rate mode                  : Constant
Bit rate                       : 448 Kbps
Channel(s)                     : 6 channels
Channel positions              : Front: L C R, Side: L R, LFE
Sampling rate                  : 48.0 KHz
Compression mode               : Lossy
Stream size                    : 359 MiB (16%)
Default                        : Yes
Forced                         : No

Menu
00:00:00.000                   : en:(01)00:00:00:000
00:05:55.562                   : en:(02)00:05:55:562
00:12:18.571                   : en:(03)00:12:18:571
00:18:53.507                   : en:(04)00:18:53:507
00:26:38.096                   : en:(05)00:26:38:096
00:33:14.491                   : en:(06)00:33:14:491
00:38:56.458                   : en:(07)00:38:56:458
00:44:11.190                   : en:(08)00:44:11:190
00:49:40.309                   : en:(09)00:49:40:309
00:55:40.628                   : en:(10)00:55:40:628
01:02:01.259                   : en:(11)01:02:01:259
01:04:51.971                   : en:(12)01:04:51:971
01:14:32.759                   : en:(13)01:14:32:759
01:21:18.414                   : en:(14)01:21:18:414
01:28:10.158                   : en:(15)01:28:10:158
01:36:58.229                   : en:(16)01:36:58:229
01:41:52.021                   : en:(17)01:41:52:021
01:46:20.873                   : en:(18)01:46:20:873
01:52:07.345                   : en:(19)01:52:07:345

Джерело: &
Особиста оцінка: 8 - той момент, коли сиквел кращий за ориґінал
За синхронізацію доріжки подяка пану Hanway
Підтримати купівлю інших фільмів можна тут



 Трекер:    Зареєстрований   

Завантажити / скачати фільм українською



відео для новачків



 Зареєстрований:   2017-03-21 16:23
 Розмір:   2.15 GB 
 Оцінка фільму:   5.3/10 (Голосів: 20)
   
kinaxem 
Свій


З нами з: 21.12.16
Востаннє: 20.07.17
Повідомлень: 81

2017-03-21 16:44  
Чому не дописуєте в назву наприклад [UKR] [Hurtom], не вказуєте мову і дописуйте гуртом, адже доріжки то звідси берете.
Anonymous 







2017-03-21 16:58  
kinaxem написано:
не вказуєте мову

Вона ж лише одна, вписую, коли дві і більше.
kinaxem написано:
дописуйте гуртом

Добре, буду, просто десь бачив, що дописувати, коли сам робив ріп

kinaxem 
Свій


З нами з: 21.12.16
Востаннє: 20.07.17
Повідомлень: 81

2017-03-21 17:00  
Anonymous написано:
Вона ж лише одна

Але ж не підписана, звідки я маю знати якою воно мовою, може там китайська, і теж тільки одна Wink (1)

Anonymous 







2017-03-21 17:09  
kinaxem
Запам'ятаю на майбутнє Happy

11FrYkT 
Модератор відео


З нами з: 20.02.11
Востаннє: 20.07.17
Повідомлень: 3760

2017-03-22 10:50  
Anonymous написано:
816x340

скріншоти не відповідать вказаному розміру. Також на далі є кращі ріпи (особливо це стосується розміру кадру)

Anonymous 







2017-03-22 19:04  
11FrYkT
Через помилку у описі (або я затупив) на першоджерелі так трапилось.. Найкращий варіант важив більше 3 ґіґабайтів

Aqbf 
Свій


З нами з: 29.01.16
Востаннє: 20.07.17
Повідомлень: 73

2017-03-22 20:22  
kinaxem написано:
Але ж не підписана, звідки я маю знати якою воно мовою, може там китайська, і теж тільки одна

В розділі "Українське озвучення" китайська та ще й одна бути не може.

Ваш часовий пояс: GMT + 2 Години

Нова тема   Відповісти