Брудні танці / Dirty Dancing (1987) Remux 1080p 2хUkr/Eng | Sub Eng

Нові коментарі

Нова тема   Відповісти
Автор Повідомлення
Anonymous 







2017-03-20 16:51  
Брудні танці / Dirty Dancing (1987) Remux 1080p 2хUkr/Eng | Sub Eng

Брудні танці / Dirty Dancing (1987) Remux 1080p 2хUkr/Eng | Sub Eng
Оригінальна обкладинка


Жанр: драма, мелодрама, романтичний, музичний
Країна: США


Оскар та Золотий глобус за найкращу пісню: "(I've Had) The Time of My Life"







Кінокомпанія: Great American Films Limited Partnership, Vestron Pictures
Режисер: Еміль Ардоліно / Emile Ardolino
Актори: Дженніфер Грей / Jennifer Grey, Патрік Свейзі / Patrick Swayze, Джері Орбак / Jerry Orbach, Синтія Роудс / Cynthia Rhodes, Джек Вестон / Jack Weston, Джейн Брукер / Jane Brucker, Келлі Бішоп / Kelly Bishop, Лонні Прайс / Lonny Price, Макс Кентор / Max Cantor, Чарльз 'Хоні' Коулз / Charles 'Honi' Coles

Сюжет:
Літо 1963 року. 17-річна Френсіс на прізвисько Бейбі, проводить канікули з батьками в курортному готелі. Вона знайомиться з Джоні, красивим професійним танцюристом, досвідченим в питаннях життя і кохання.
Немов зачарована сексуальними ритмами і нічим не стримуваними рухами “брудних танців” в стилі ритм-енд-блюз, Бейбі стає ученицею-партнеркою Джоні - і в танцях і в коханні...


Рейтинг MPAA: PG-13 - дітям до 13 років перегляд не бажаний
Вікова категорія: 12+

Тривалість: 01:40:31
Якість: Remux [Limited Keepsake Edition, Remastered]
Відео:
кодек:
розмір кадру: 1920 х 1080
бітрейт: 34,9 Мб/с

Аудіо # 1:
мова: українська
переклад: двоголосий закадровий | СТБ
кодек: 5.1
бітрейт: 384 кб/с

Аудіо # 2:
мова: українська
переклад: двоголосий закадровий | "Новий канал"
кодек: 5.1
бітрейт: 384 кб/с

Аудіо # 3:
мова: англійська
переклад: оригінал
кодек: -HD MA 7.1
бітрейт: 5274 кб/с

Аудіо # 4:
мова: англійська
переклад: оригінал
кодек: 5.1
бітрейт: 640 кб/с

Аудіо # 5:
мова: англійська
переклад: коментарі з автором сценарію Елеонорою Бергштейн
кодек: 2.0
бітрейт: 224 кб/с

Аудіо # 6:
мова: англійська
переклад: коментарі з Kenny Ortega, Miranda Garrison, Jeff Jur, Hilary Rosenfeld and David Chapman
кодек: 2.0
бітрейт: 224 кб/с

Субтитри # 1-3:
мова: англійська (повні, SDH, цікаві факти про фільм)
тип: пререндерні
формат: PGS

Збережено оригінальні розділи, як на Blu-ray*
*Я замінив 16 розділів без назв з Limited Keepsake Edition на 26 поіменованих розділів з іншого видання Blu-ray, взятих на chapterdb.org
Info
Код:
Format                      :
Format version              : Version 4 / Version 2
File size                   : 29.5 GiB
Duration                    : 1 h 40 min
Overall bit rate mode       : Variable
Overall bit rate            : 42.0 Mb/s

Video
ID                          : 1
Format                      : AVC
Format/Info                 : Advanced Video Codec
Format profile              : [email protected]
Format settings, CABAC      : Yes
Format settings, ReFrames   : 4 frames
Codec ID                    : V_MPEG4/ISO/AVC
Duration                    : 1 h 40 min
Bit rate mode               : Variable
Bit rate                    : 34.9 Mb/s
Maximum bit rate            : 37.0 Mb/s
Width                       : 1 920 pixels
Height                      : 1 080 pixels
Display aspect ratio        : 16:9
Frame rate mode             : Constant
Frame rate                  : 23.976 (24000/1001) FPS
Color space                 : YUV
Chroma subsampling          : 4:2:0
Bit depth                   : 8 bits
Scan type                   : Progressive
Bits/(Pixel*Frame)          : 0.702
Stream size                 : 24.5 GiB (83%)
Title                       : Брудні танці / Dirty Dancing (1987) Remux 1080p [Limited Keepsake Ed. Remastered 1080p Blu-ray, TrollHD]
Language                    : English
Default                     : Yes
Forced                      : No
Color range                 : Limited
Color primaries             : BT.709
Transfer characteristics    : BT.709
Matrix coefficients         : BT.709

Audio #1
ID                          : 2
Format                      : AC-3
Format/Info                 : Audio Coding 3
Format settings, Endianness : Big
Codec ID                    : A_AC3
Duration                    : 1 h 40 min
Bit rate mode               : Constant
Bit rate                    : 384 kb/s
Channel(s)                  : 6 channels
Channel positions           : Front: L C R, Side: L R, LFE
Sampling rate               : 48.0 kHz
Frame rate                  : 31.250 FPS (1536 spf)
Bit depth                   : 16 bits
Compression mode            : Lossy
Stream size                 : 276 MiB (1%)
Title                       : DVO [STB] 5.1 384 Kbps [Hurtom-Romario_O]
Language                    : Ukrainian
Service kind                : Complete Main
Default                     : Yes
Forced                      : Yes

Audio #2
ID                          : 3
Format                      : AC-3
Format/Info                 : Audio Coding 3
Format settings, Endianness : Big
Codec ID                    : A_AC3
Duration                    : 1 h 40 min
Bit rate mode               : Constant
Bit rate                    : 384 kb/s
Channel(s)                  : 6 channels
Channel positions           : Front: L C R, Side: L R, LFE
Sampling rate               : 48.0 kHz
Frame rate                  : 31.250 FPS (1536 spf)
Bit depth                   : 16 bits
Compression mode            : Lossy
Stream size                 : 276 MiB (1%)
Title                       : DVO [Novyj] 5.1 384 Kbps [Hurtom-Romario_O]
Language                    : Ukrainian
Service kind                : Complete Main
Default                     : No
Forced                      : No

Audio #3
ID                          : 4
Format                      :
Format/Info                 : Digital Theater Systems
Format profile              : MA / Core
Mode                        : 16
Format settings, Endianness : Big
Codec ID                    : A_DTS
Duration                    : 1 h 40 min
Bit rate mode               : Variable / Constant
Bit rate                    : 5 274 kb/s / 1 509 kb/s
Channel(s)                  : 8 channels / 6 channels
Channel positions           : Front: L C R, Side: L R, Back: L R, LFE / Front: L C R, Side: L R, LFE
Sampling rate               : 48.0 kHz
Frame rate                  : 93.750 FPS (512 spf)
Bit depth                   : 24 bits
Compression mode            : Lossless / Lossy
Stream size                 : 3.70 GiB (13%)
Title                       : Original, -HD MA 7.1 5274 kbps
Language                    : English
Default                     : No
Forced                      : No

Audio #4
ID                          : 5
Format                      : AC-3
Format/Info                 : Audio Coding 3
Format settings, Endianness : Big
Codec ID                    : A_AC3
Duration                    : 1 h 40 min
Bit rate mode               : Constant
Bit rate                    : 640 kb/s
Channel(s)                  : 6 channels
Channel positions           : Front: L C R, Side: L R, LFE
Sampling rate               : 48.0 kHz
Frame rate                  : 31.250 FPS (1536 spf)
Bit depth                   : 16 bits
Compression mode            : Lossy
Stream size                 : 460 MiB (2%)
Title                       : Original, 5.1 640 Kbps
Language                    : English
Service kind                : Complete Main
Default                     : No
Forced                      : No

Audio #5
ID                          : 6
Format                      : AC-3
Format/Info                 : Audio Coding 3
Mode                        : Dolby Digital
Format settings, Endianness : Big
Codec ID                    : A_AC3
Duration                    : 1 h 40 min
Bit rate mode               : Constant
Bit rate                    : 224 kb/s
Channel(s)                  : 2 channels
Channel positions           : Front: L R
Sampling rate               : 48.0 kHz
Frame rate                  : 31.250 FPS (1536 spf)
Bit depth                   : 16 bits
Compression mode            : Lossy
Stream size                 : 161 MiB (1%)
Title                       : Commentary with Eleanor Bergstein
Language                    : English
Service kind                : Complete Main
Default                     : No
Forced                      : No

Audio #6
ID                          : 7
Format                      : AC-3
Format/Info                 : Audio Coding 3
Mode                        : Dolby Digital
Format settings, Endianness : Big
Codec ID                    : A_AC3
Duration                    : 1 h 40 min
Bit rate mode               : Constant
Bit rate                    : 224 kb/s
Channel(s)                  : 2 channels
Channel positions           : Front: L R
Sampling rate               : 48.0 kHz
Frame rate                  : 31.250 FPS (1536 spf)
Bit depth                   : 16 bits
Compression mode            : Lossy
Stream size                 : 161 MiB (1%)
Title                       : Commentary with Kenny Ortega, Miranda Garrison, Jeff Jur, Hilary Rosenfeld and David Chapman
Language                    : English
Service kind                : Complete Main
Default                     : No
Forced                      : No

Text #1
ID                          : 8
Format                      : PGS
Muxing mode                 : zlib
Codec ID                    : S_HDMV/PGS
Codec ID/Info               : Picture based subtitle format used on BDs/HD-DVDs
Duration                    : 1 h 37 min
Bit rate                    : 8 038 b/s
Count of elements           : 1632
Stream size                 : 5.60 MiB (0%)
Title                       : Eng full
Language                    : English
Default                     : No
Forced                      : No

Text #2
ID                          : 9
Format                      : PGS
Muxing mode                 : zlib
Codec ID                    : S_HDMV/PGS
Codec ID/Info               : Picture based subtitle format used on BDs/HD-DVDs
Duration                    : 1 h 38 min
Bit rate                    : 8 560 b/s
Count of elements           : 1762
Stream size                 : 6.06 MiB (0%)
Title                       : Eng SDH
Language                    : English
Default                     : No
Forced                      : No

Text #3
ID                          : 10
Format                      : PGS
Muxing mode                 : zlib
Codec ID                    : S_HDMV/PGS
Codec ID/Info               : Picture based subtitle format used on BDs/HD-DVDs
Duration                    : 1 h 32 min
Bit rate                    : 18.8 kb/s
Count of elements           : 262
Stream size                 : 12.4 MiB (0%)
Title                       : Eng [Interesting Facts]
Language                    : English
Default                     : No
Forced                      : No

Menu
00:00:00.000                : en:Opening Credits
00:05:30.330                : en:Summer of 1963
00:08:46.067                : en:The Merengue
00:13:10.790                : en:Mambo Night
00:18:02.998                : en:No Guests Allowed
00:20:39.238                : en:Cover For Me
00:25:01.458                : en:Some People Count
00:28:50.145                : en:Trying to Help
00:33:15.702                : en:2, 3, 4
00:35:24.705                : en:Balance
00:39:23.235                : en:Showtime
00:44:37.466                : en:Big Trouble
00:49:25.253                : en:With You
00:53:39.507                : en:Mixed Up
00:59:02.538                : en:Charades
01:03:27.762                : en:Fight Hard
01:06:26.107                : en:Wrong Sister
01:09:19.780                : en:Booked Up
01:12:30.846                : en:Unexpected Company
01:15:42.829                : en:Johnny's Alibi
01:20:43.838                : en:Leave Quietly
01:25:34.337                : en:Like the Wind
01:30:08.528                : en:Coming to an End
01:36:54.391                : en:Last Dance
01:40:11.004                : en:Time of My Life
01:40:12.006                : en:Leaving Early


Джерело: &
Подяка п. Romario_O за українські доріжки та п. Воїн'у за український постер.

Особиста оцінка: 10 - без зайвих вагань рекомендую всім!

ЗАЛИШАЙТЕСЬ ЯКОМОГА ДОВШЕ НА РОЗДАЧІ
ЗАВАНТАЖИВ САМ - ДАЙ ЗАВАНТАЖИТИ ІНШИМ!


Золотий реліз (завантажене не впливає на рейтинг)
 Трекер:    Зареєстрований   

Завантажити / скачати фільм українською



відео для новачків



 Зареєстрований:   2017-03-20 20:10
 Розмір:   29.53 GB 
 Оцінка фільму:   3.1/10 (Голосів: 13)
   
Інші релізи
Ваш часовий пояс: GMT + 2 Години

Нова тема   Відповісти