Assassin s Creed: Кредо вбивці / Assassin's Creed (2016) 720p-mini

Нові коментарі

Нова тема   Відповісти
Автор Повідомлення
Drool 
VIP


З нами з: 17.04.10
Востаннє: 28.03.17
Повідомлень: 1307

2017-03-20 12:31  
Assassin s Creed: Кредо вбивці / Assassin's Creed (2016) 720p-mini

Assassin s Creed: Кредо вбивці / Assassin's Creed (2016) 720p-mini


Жанр: бойовик, пригодницький, драма, фантастика
Країна: США, Велика Британія, Франція, Гонконг, Тайвань, Мальта


Діти до 13 років допускаються на фільм тільки з батьками
Настійне застереження батькам. Деякий матеріал може бути невідповідним для дітей до 13 років. Цей рейтинг показує, що оцінений фільм може бути невідповідним для дітей. Батьки повинні бути особливо обережні, дозволяючи своїм маленьким дітям перегляд. Грубе або тривале насильство відсутнє; сексуальна орієнтація на наготу відсутня; деякі сцени вживання наркотиків можуть бути присутніми; можна почути одиничні вживання грубої сексуальної лексики. Присутня епізодична оголеність (не враховуючи репродуктивні органи). Присутні сексуальні натяки і натяки на гомосексуалізм чи сексуальні збочення.
Кінокомпанія: 20th Century Fox, New Regency Pictures, Ubisoft
Режисер: Джастін Курзель
Актори: Майкл Фассбендер, Маріон Котійяр, Джеремі Айронс, Брендан Ґлісон, Аріан Лабед, Шарлотта Ремплінґ, Майкл Кеннет Вільямс, Матіас Варела, Хавьєр Ґутьєррез, Ессі Девіс

Сюжет:
Каллум Лінч засуджений до смертної кари. Раптово його рятує дивна компанія, яка говорить, що він – предок члена давнього Ордену Асасинів Агілара, який жив в XV столітті в Іспанії. Для того, щоб з Каллума витягнути спогади іспанця, його поміщають в надновий апарат під назвою "Анімус". Таким чином головний герой стає своїм предком і проживає часи іспанської інквізиції. Після тривалого перебування в "Анімусі" у Лінча з'являється "ефект Просочування" – надає людині вміння його предка. Каллум продовжує справу Агілара і бореться проти ордену Тамплієрів, але вже в наші дні.


Тривалість: 01:55:30
Якість: 720p-mini
Відео:
кодек:
розмір кадру: 1280 х 536
бітрейт: 1961 кб/с
crf: 17.0 [vbv_maxrate=62500]

Аудіо:
мова: українська
переклад: професійний дубльований
кодек: 5.1
бітрейт: 448 кб/с

Джерело озвучення:


Субтитри:
мова: українська
тип: програмні (м'які) форсовані
формат: *.srt
Info
Код:
General
Unique ID                                : 142390459606984923167271053283544399514 (0x6B1F67ADC434EEDA701C71CF1DF9FE9A)
Complete name                            : /mnt/disk_d/Video/Assassin's.Creed.2016.Ukr.Dub..720p-mini.
Format                                   :
Format version                           : Version 4 / Version 2
File size                                : 1.98 GiB
Duration                                 : 1h 55mn
Overall bit rate                         : 2 457 Kbps
Movie name                               : Assassin s Creed: Кредо вбивці / Assassin's Creed (2016) 720p-mini | by KinoGadget
Encoded date                             : UTC 2017-03-20 08:33:32
Writing application                      : mkvmerge v9.7.1 ('Pandemonium') 64bit
Writing library                          : libebml v1.3.4 + libmatroska v1.4.5
Attachements                             : cover.jpg
DURATION                                 : 01:30:52.865000000
NUMBER_OF_FRAMES                         : 116
NUMBER_OF_BYTES                          : 5934
_STATISTICS_WRITING_APP                  : mkvmerge v9.7.1 ('Pandemonium') 64bit
_STATISTICS_WRITING_DATE_UTC             : 2017-03-20 08:33:32
_STATISTICS_TAGS                         : BPS DURATION NUMBER_OF_FRAMES NUMBER_OF_BYTES

Video
ID                                       : 1
Format                                   : AVC
Format/Info                              : Advanced Video Codec
Format profile                           : [email protected]
Format settings, CABAC                   : Yes
Format settings, ReFrames                : 9 frames
Codec ID                                 : V_MPEG4/ISO/AVC
Duration                                 : 1h 55mn
Bit rate                                 : 1 961 Kbps
Width                                    : 1 280 pixels
Height                                   : 536 pixels
Display aspect ratio                     : 2.40:1
Frame rate mode                          : Constant
Frame rate                               : 23.976 fps
Color space                              : YUV
Chroma subsampling                       : 4:2:0
Bit depth                                : 8 bits
Scan type                                : Progressive
Bits/(Pixel*Frame)                       : 0.119
Stream size                              : 1.58 GiB (80%)
Title                                    : Assassin s Creed: Кредо вбивці / Assassin's Creed (2016) 720p-mini | by KinoGadget
Writing library                          : core 148 r2638 7599210
Encoding settings                        : cabac=1 / ref=9 / deblock=1:-2:-1 / analyse=0x3:0x113 / me=umh / subme=7 / psy=1 / psy_rd=1.00:0.00 / mixed_ref=1 / me_range=32 / chroma_me=1 / trellis=2 / 8x8dct=1 / cqm=0 / deadzone=21,11 / fast_pskip=0 / chroma_qp_offset=-2 / threads=3 / lookahead_threads=1 / sliced_threads=0 / nr=0 / decimate=1 / interlaced=0 / bluray_compat=0 / constrained_intra=0 / bframes=10 / b_pyramid=2 / b_adapt=2 / b_bias=0 / direct=1 / weightb=1 / open_gop=0 / weightp=2 / keyint=250 / keyint_min=25 / scenecut=40 / intra_refresh=0 / rc_lookahead=60 / rc=crf / mbtree=1 / crf=17.0 / qcomp=0.60 / qpmin=0 / qpmax=69 / qpstep=4 / vbv_maxrate=62500 / vbv_bufsize=78125 / crf_max=0.0 / nal_hrd=none / filler=0 / ip_ratio=1.40 / aq=1:1.00
Default                                  : Yes
Forced                                   : Yes

Audio
ID                                       : 2
Format                                   : AC-3
Format/Info                              : Audio Coding 3
Mode extension                           : CM (complete main)
Format settings, Endianness              : Big
Codec ID                                 : A_AC3
Duration                                 : 1h 55mn
Bit rate mode                            : Constant
Bit rate                                 : 448 Kbps
Channel(s)                               : 6 channels
Channel positions                        : Front: L C R, Side: L R, LFE
Sampling rate                            : 48.0 KHz
Compression mode                         : Lossy
Stream size                              : 370 MiB (18%)
Title                                    : 5.1 @ 448 kbps
Language                                 : Ukrainian
Default                                  : Yes
Forced                                   : Yes

Text
ID                                       : 3
Format                                   : UTF-8
Codec ID                                 : S_TEXT/UTF8
Codec ID/Info                            : UTF-8 Plain Text
Title                                    : Forced
Language                                 : Ukrainian
Default                                  : Yes
Forced                                   : Yes
Скріншоти




Джерело відеоряду:
Особиста оцінка: 8 - мені сподобалося


 Трекер:    Зареєстрований   

Завантажити / скачати фільм українською



відео для новачків



 Зареєстрований:   2017-03-20 12:31
 Розмір:   1.98 GB 
 Оцінка фільму:   6.5/10 (Голосів: 4)
   
Qui-Gon 
Частий відвідувач


З нами з: 01.02.09
Востаннє: 22.03.17
Повідомлень: 27

2017-03-20 23:32  
А чи буде розширена версія?
Ваш часовий пояс: GMT + 2 Години

Нова тема   Відповісти