Чорне дзеркало: Біле Різдво (спецепізод) / Black Mirror: White Christmas (special episode) (2014) 720p Ukr/Eng | Sub Eng

Нові коментарі

Нова тема   Відповісти
Автор Повідомлення
НеЗупиняйПродакшн 
VIP


З нами з: 28.07.15
Востаннє: 23.11.20
Повідомлень: 1254

2017-03-19 23:11  
_________________________________________________________________________________

Чорне дзеркало: Біле Різдво: 1080p |


Чорне дзеркало: Біле Різдво (спецепізод) / Black Mirror: White Christmas (special episode) (2014) 720p Ukr/Eng | Sub Eng

Чорне дзеркало: Біле Різдво (спецепізод) / Black Mirror: White Christmas (special episode) (2014) 720p Ukr/Eng | Sub Eng


Жанр: триллер, драма
Країна: Велика Британія



Режисер: Карл Тібеттс
Актори: Джон Гем, Рейф Спол, Уна Чаплін, Наталія Тена, Дженет Монтґомері, Ресмус Хардкікер та інші

Сюжет:
Повнометражний епізод із трьох новел. На таємничому та далекому засніженому фортпості Метью та Джо за різдвяною вечерею діляться один з одним моторошними історіями зі свого минулого. Метью - харизматичний та відкритий американський хлопець. Джо - замкнута людина, яка рідко контактує з людьми, що його оточують. Та чи справді вони є тими, ким здаються на перший погляд?


Тривалість: 1 серія: 01:14:22 (цілком серій: 1)
Якість:
Відео:
кодек:
розмір кадру: 1280 х 720
бітрейт: 2600 кб/с

Аудіо # 1:
мова: українська
озвучення: професійне багатоголосе закадрове
кодек: 2.0
бітрейт: 384 кб/с

Озвучено студією "НеЗупиняйПродакшн"



Гроші на озвучення були надані доброчинцем.

Аудіо # 2:
мова: англійська
переклад: оригінал
кодек: 2.0
бітрейт: 224 кб/с

Субтитри:
мова: англійська
тип: програмні (м'які)
формат: *.srt
Скріншоти




Info
Video
ID : 1
Format : AVC
Format/Info : Advanced Video Codec
Format profile : [email protected]
Format settings, CABAC : Yes
Format settings, ReFrames : 4 frames
Codec ID : V_MPEG4/ISO/AVC
Duration : 1 h 14 min
Bit rate : 2 600 kb/s
Width : 1 280 pixels
Height : 720 pixels
Display aspect ratio : 16:9
Frame rate mode : Constant
Frame rate : 25.000 FPS
Color space : YUV
Chroma subsampling : 4:2:0
Bit depth : 8 bits
Scan type : Progressive
Bits/(Pixel*Frame) : 0.113
Stream size : 1.35 GiB (81%)
Writing library : core 148 r2638 7599210
Encoding settings : cabac=1 / ref=3 / deblock=1:-1:-1 / analyse=0x3:0x113 / me=hex / subme=7 / psy=1 / psy_rd=1.00:0.15 / mixed_ref=1 / me_range=16 / chroma_me=1 / trellis=1 / 8x8dct=1 / cqm=0 / deadzone=21,11 / fast_pskip=1 / chroma_qp_offset=-3 / threads=6 / lookahead_threads=1 / sliced_threads=0 / nr=0 / decimate=1 / interlaced=0 / bluray_compat=0 / constrained_intra=0 / bframes=3 / b_pyramid=2 / b_adapt=1 / b_bias=0 / direct=1 / weightb=1 / open_gop=0 / weightp=2 / keyint=250 / keyint_min=25 / scenecut=40 / intra_refresh=0 / rc_lookahead=40 / rc=2pass / mbtree=1 / bitrate=2600 / ratetol=1.0 / qcomp=0.60 / qpmin=0 / qpmax=69 / qpstep=4 / cplxblur=20.0 / qblur=0.5 / ip_ratio=1.40 / aq=1:1.00
Default : Yes
Forced : No

Audio #1
ID : 2
Format : AC-3
Format/Info : Audio Coding 3
Format settings, Endianness : Big
Codec ID : A_AC3
Duration : 1 h 14 min
Bit rate mode : Constant
Bit rate : 384 kb/s
Channel(s) : 2 channels
Channel positions : Front: L R
Sampling rate : 48.0 kHz
Frame rate : 31.250 FPS (1536 spf)
Bit depth : 16 bits
Compression mode : Lossy
Stream size : 204 MiB (12%)
Title : Українська (НеЗупиняйПродакшн)
Language : Ukrainian
Service kind : Complete Main
Default : Yes
Forced : No

Audio #2
ID : 3
Format : AC-3
Format/Info : Audio Coding 3
Format settings, Endianness : Big
Codec ID : A_AC3
Duration : 1 h 14 min
Bit rate mode : Constant
Bit rate : 224 kb/s
Channel(s) : 2 channels
Channel positions : Front: L R
Sampling rate : 48.0 kHz
Frame rate : 31.250 FPS (1536 spf)
Bit depth : 16 bits
Compression mode : Lossy
Stream size : 119 MiB (7%)
Language : English
Service kind : Complete Main
Default : No
Forced : No

Text
ID : 4
Format : UTF-8
Codec ID : S_TEXT/UTF8
Codec ID/Info : UTF-8 Plain Text
Duration : 1 h 12 min
Bit rate : 64 b/s
Count of elements : 1066
Stream size : 34.4 KiB (0%)
Language : English
Default : Yes
Forced : No


Авторський реліз (завантажувати можна без реєстрації)
 Трекер:    Зареєстрований   

Завантажити / скачати серіал українською



відео для новачків



 Зареєстрований:   2017-03-21 23:02
 Розмір:   1.67 GB 
 Оцінка серіалу:   9.9/10 (Голосів: 31)
   
bot 
робот


З нами з: 30.09.07
Востаннє: 26.05.05
Повідомлень: 26355

2017-03-19 23:11  
Тему перенесено з Серіали в HD до форуму Анонси релізів


НеЗупиняйПродакшн

igor911 
Модератор відео


З нами з: 18.01.08
Востаннє: 24.11.20
Повідомлень: 15080

2017-03-19 23:48  
НеЗупиняйПродакшн написано:
Великобританія

Велика Британія

kolyan2996 
Свій


З нами з: 27.07.11
Востаннє: 24.08.18
Повідомлень: 61

2017-03-20 15:18  
Джо за за різдвяною
kiboal 
Свій


З нами з: 25.12.14
Востаннє: 22.11.20
Повідомлень: 134

2017-03-20 17:41  
ого, нічого собі які проекти озвучують гуртом !непогано
НеЗупиняйПродакшн 
VIP


З нами з: 28.07.15
Востаннє: 23.11.20
Повідомлень: 1254

2017-03-20 18:14  
kolyan2996 написано:
Джо за за різдвяною

Дякуємо. Виправили.
kiboal написано:
ого, нічого собі які проекти озвучують гуртом !непогано

Це не "Студія Гуртом", це "НеЗупиняйПродакшн".

[Captain] 
Попереджень: 1
Попереджень: 1 


З нами з: 18.02.12
Востаннє: 21.11.20
Повідомлень: 2338

2017-03-20 18:37  
НеЗупиняйПродакшн
а написано
НеЗупиняйПродакшн написано:
Відео Гуртом - озвучення

НеЗупиняйПродакшн 
VIP


З нами з: 28.07.15
Востаннє: 23.11.20
Повідомлень: 1254

2017-03-20 18:45  
[Captain] написано:
Відео Гуртом - озвучення

Це інформація про профіль на толоці, а не про студію загалом Happy

masskim 
Новенький


З нами з: 02.02.12
Востаннє: 24.11.20
Повідомлень: 16

2017-03-21 07:22  
Є сенс чекати на повний 3-й сезон?
Krest0 
VIP


З нами з: 23.01.16
Востаннє: 25.11.20
Повідомлень: 2842

2017-03-21 19:50  
masskim
Вже озвучує Melodic Voice Studio. На толоці вже є перші дві серії і вони збираються озвучити згодом і всі інші.

bot 
робот


З нами з: 30.09.07
Востаннє: 26.05.05
Повідомлень: 26355

2017-03-21 23:00  
Тему перенесено з Анонси релізів до форуму Серіали в HD


НеЗупиняйПродакшн

Ваш часовий пояс: GMT + 2 Години

Нова тема   Відповісти