Чорне дзеркало: Біле Різдво (спецепізод) / Black Mirror: White Christmas (special episode) (2014) 1080p Ukr/Eng | Sub Eng

Нові коментарі

Нова тема   Відповісти
Автор Повідомлення
НеЗупиняйПродакшн 
Відео Гуртом - озвучення
Відео Гуртом - озвучення


З нами з: 28.07.15
Востаннє: 24.11.17
Повідомлень: 483

2017-03-19 23:02  
_________________________________________________________________________________

Чорне дзеркало: Біле Різдво: 720p |


Чорне дзеркало: Біле Різдво (спецепізод) / Black Mirror: White Christmas (special episode) (2014) 1080p Ukr/Eng | Sub Eng

Чорне дзеркало: Біле Різдво (спецепізод) / Black Mirror: White Christmas (special episode) (2014) 1080p Ukr/Eng | Sub Eng


Жанр: триллер, драма
Країна: Великобританія



Режисер: Карл Тібеттс
Актори: Джон Гем, Рейф Спол, Уна Чаплін, Наталія Тена, Дженет Монтґомері, Ресмус Хардкікер та інші

Сюжет:
Повнометражний епізод із трьох новел. На таємничому та далекому засніженому фортпості Метью та Джо за за різдвяною вечерею діляться один з одним моторошними історіями зі свого минулого. Метью - харизматичний та відкритий американський хлопець. Джо - замкнута людина, яка рідко контактує з людьми, що його оточують. Та чи справді вони є тими, ким здаються на перший погляд?


Тривалість: 1 серія: 01:14:22 (цілком серій: 1)
Якість: 1080p
Відео:
кодек:
розмір кадру: 1920 х 1080
бітрейт: 5 227 кб/с

Аудіо # 1:
мова: українська
озвучення: професійне багатоголосе закадрове
кодек: 2.0
бітрейт: 384 кб/с

Озвучено студією "НеЗупиняйПродакшн"



Гроші на озвучення були надані доброчинцем.

Аудіо # 2:
мова: англійська
переклад: оригінал
кодек: 2.0
бітрейт: 224 кб/с

Субтитри:
мова: англійська
тип: програмні (м'які)
формат: *.srt
Скріншоти




Info
Video
ID : 1
Format : AVC
Format/Info : Advanced Video Codec
Format profile : [email protected]
Format settings, CABAC : Yes
Format settings, ReFrames : 4 frames
Codec ID : V_MPEG4/ISO/AVC
Duration : 1 h 14 min
Bit rate : 5 227 kb/s
Width : 1 920 pixels
Height : 1 080 pixels
Display aspect ratio : 16:9
Frame rate mode : Constant
Frame rate : 25.000 FPS
Color space : YUV
Chroma subsampling : 4:2:0
Bit depth : 8 bits
Scan type : Progressive
Bits/(Pixel*Frame) : 0.101
Stream size : 2.72 GiB (90%)
Language : English
Default : Yes
Forced : No
Color range : Limited
Color primaries : BT.709
Transfer characteristics : BT.709
Matrix coefficients : BT.709

Audio #1
ID : 2
Format : AC-3
Format/Info : Audio Coding 3
Format settings, Endianness : Big
Codec ID : A_AC3
Duration : 1 h 14 min
Bit rate mode : Constant
Bit rate : 384 kb/s
Channel(s) : 2 channels
Channel positions : Front: L R
Sampling rate : 48.0 kHz
Frame rate : 31.250 FPS (1536 spf)
Bit depth : 16 bits
Compression mode : Lossy
Stream size : 204 MiB (7%)
Title : Українська (НеЗупиняйПродакшн)
Language : Ukrainian
Service kind : Complete Main
Default : Yes
Forced : No

Audio #2
ID : 3
Format : AC-3
Format/Info : Audio Coding 3
Format settings, Endianness : Big
Codec ID : A_AC3
Duration : 1 h 14 min
Bit rate mode : Constant
Bit rate : 224 kb/s
Channel(s) : 2 channels
Channel positions : Front: L R
Sampling rate : 48.0 kHz
Frame rate : 31.250 FPS (1536 spf)
Bit depth : 16 bits
Compression mode : Lossy
Stream size : 119 MiB (4%)
Language : English
Service kind : Complete Main
Default : No
Forced : No

Text
ID : 4
Format : UTF-8
Codec ID : S_TEXT/UTF8
Codec ID/Info : UTF-8 Plain Text
Duration : 1 h 12 min
Bit rate : 64 b/s
Count of elements : 1066
Stream size : 34.4 KiB (0%)
Language : English
Default : Yes
Forced : No


Авторський реліз (завантажувати можна без реєстрації)
 Трекер:    Зареєстрований   

Завантажити / скачати серіал українською



відео для новачків



 Зареєстрований:   2017-03-21 23:01
 Розмір:   3.03 GB 
 Оцінка серіалу:   10/10 (Голосів: 17)
   
bot 
робот


З нами з: 30.09.07
Востаннє: 26.05.05
Повідомлень: 17839

2017-03-21 23:00  
Тему перенесено з Анонси релізів до форуму Серіали в HD


НеЗупиняйПродакшн

Едм 
VIP


З нами з: 18.05.08
Востаннє: 25.11.17
Повідомлень: 1223

2017-03-23 02:06  
шикарно
0mage0 
Свій


З нами з: 06.10.15
Востаннє: 24.11.17
Повідомлень: 124

2017-04-23 18:19  
Ну таке...простіше було із зед-очей відео записувати і таким чином знаходити злочинців. Тоді не треба мозок зчитувати Happy
Ваш часовий пояс: GMT + 2 Години

Нова тема   Відповісти