Українські шерифи (2015) 1080p Ukr | Sub Eng

Нові коментарі

Нова тема   Відповісти
Автор Повідомлення
NextDayMinor 
Свій


З нами з: 14.06.13
Востаннє: 11.12.17
Повідомлень: 86

2017-03-19 19:31  
Українські шерифи (2015) 1080p Ukr | Sub Eng

Українські шерифи (2015) 1080p Ukr | Sub Eng


Жанр: документальний
Країна: Україна, Латвія, Німеччина



Кінокомпанія: VFS Films, SOUTH, Taskovski Films
Режисер: Роман Бондарчук
Актори: Віктор Кривобородько, Володимир Рудьковський та інші

Сюжет:
Через те, що в селі Стара Збур'ївка практично немає міліції, функцію охорони громадського порядку беруть на себе двоє місцевих жителів — 50-річний Віктор Кривобородько і 44-річний Володимир Рудьковський.
Віктор і Володя суміщають обов'язки міліціонерів і соціальних працівників: вгамовують сімейні сварки, присікають бійки між сусідами, шукають потопельників тощо — тобто займаються усім, окрім кримінальних злочинів. Однак після того, як починається війна, настрій у жителів села змінюється.

Фільм здобув спеціальний приз журі за найкращий повнометражний документальний фільм на Амстердамському міжнародному документальному кінофестивалі. Також фільм був висунутий Україною на премію «Оскар» за найкращий фільм іноземною мовою.


Тривалість: 01:24:54
Якість: 1080p
Відео:
кодек:
розмір кадру: 1920 х 1080
бітрейт: 4500 кб/с

Аудіо:
мова: українська, суржик, російська
переклад: оригінал
кодек: 2.0
бітрейт: 256 кб/с

Субтитри:
мова: англійська
тип: вбудовані (жорсткі)
Info
Video
ID : 1
Format : AVC
Format/Info : Advanced Video Codec
Format profile : [email protected]
Format settings, CABAC : Yes
Format settings, ReFrames : 4 frames
Codec ID : avc1
Codec ID/Info : Advanced Video Coding
Duration : 1 h 24 min
Bit rate : 4 500 kb/s
Width : 1 920 pixels
Height : 1 080 pixels
Display aspect ratio : 16:9
Frame rate mode : Constant
Frame rate : 25.000 FPS
Color space : YUV
Chroma subsampling : 4:2:0
Bit depth : 8 bits
Scan type : Progressive
Bits/(Pixel*Frame) : 0.087
Stream size : 2.66 GiB (95%)
Writing library : core 148 r10 72d53ab
Encoding settings : cabac=1 / ref=4 / deblock=1:0:0 / analyse=0x3:0x113 / me=hex / subme=8 / psy=1 / psy_rd=1.00:0.00 / mixed_ref=1 / me_range=16 / chroma_me=1 / trellis=2 / 8x8dct=1 / cqm=0 / deadzone=21,11 / fast_pskip=1 / chroma_qp_offset=-2 / threads=34 / lookahead_threads=5 / sliced_threads=0 / nr=0 / decimate=1 / interlaced=0 / bluray_compat=0 / stitchable=1 / constrained_intra=0 / bframes=3 / b_pyramid=2 / b_adapt=1 / b_bias=0 / direct=3 / weightb=1 / open_gop=0 / weightp=2 / keyint=infinite / keyint_min=25 / scenecut=40 / intra_refresh=0 / rc_lookahead=50 / rc=2pass / mbtree=1 / bitrate=4500 / ratetol=1.0 / qcomp=0.60 / qpmin=5 / qpmax=69 / qpstep=4 / cplxblur=20.0 / qblur=0.5 / vbv_maxrate=4950 / vbv_bufsize=13500 / nal_hrd=none / filler=0 / ip_ratio=1.40 / aq=1:1.00
Encoded date : UTC 2016-10-27 14:15:56
Tagged date : UTC 2016-10-27 14:15:56
Color range : Limited
Color primaries : BT.709
Transfer characteristics : BT.709
Matrix coefficients : BT.709

Audio
ID : 2
Format :
Format/Info : Advanced Audio Codec
Format profile : LC
Codec ID : 40
Duration : 1 h 24 min
Bit rate mode : Variable
Bit rate : 256 kb/s
Channel(s) : 2 channels
Channel positions : Front: L R
Sampling rate : 48.0 kHz
Frame rate : 46.875 FPS (1024 spf)
Compression mode : Lossy
Stream size : 155 MiB (5%)
Encoded date : UTC 2016-10-27 14:15:56
Tagged date : UTC 2016-10-27 14:15:56
Скріншоти




Особиста оцінка: 10 - без зайвих вагань рекомендую всім!


Золотий реліз (завантажене не впливає на рейтинг)
 Трекер:    Зареєстрований   

Завантажити / скачати фільм українською



відео для новачків



 Зареєстрований:   2017-03-19 19:31
 Розмір:   2.81 GB 
 Оцінка фільму:   9.9/10 (Голосів: 17)
   
bot 
робот


З нами з: 30.09.07
Востаннє: 26.05.05
Повідомлень: 17895

2017-03-20 00:17  
Ваш часовий пояс: GMT + 2 Години

Нова тема   Відповісти