Лего. Супергерої Марвел: Месники. Возз'єднання / Lego Marvel Super Heroes: Avengers Reassembled (2015) 720p Ukr/Eng | Sub Eng

Нові коментарі

Нова тема   Відповісти
Автор Повідомлення
sergiyko.5 
VIP


З нами з: 25.02.16
Востаннє: 23.08.17
Повідомлень: 1007

2017-03-18 22:42  
Лего. Супергерої Марвел: Месники. Возз'єднання / Lego Marvel Super Heroes: Avengers Reassembled (2015) 720p Ukr/Eng | Sub Eng

Лего. Супергерої Марвел: Месники. Возз'єднання / Lego Marvel Super Heroes: Avengers Reassembled (2015) 720p Ukr/Eng | Sub Eng

Жанр: анімація, фантастика, бойовик
Країна: США
Кінокомпанія: Disney Television Animation
Режисер: Роб Сільвестрі

Сюжет:
Доки у світі зберігався відносний спокій і ніхто не намагався захопити чи знищити планету, Месники влаштували собі відпочинок. Їхня компанія весело проводила час у башті Тоні Старка: влаштовувала вечірки і смакувала улюблені фрикадельки. Ніхто й не підозрював, що загроза може причаїтися всередині, у самому Альтроні, якого не покликали на вечірку. Альтрон вирішив помститися Месникам, і заволодів численними костюмами Залізної Людини. Тепер він має секретні розробки Старка, до того ж у пастку потрапив і сам Тоні, адже він на той момент знаходився в костюмі...




Тривалість: 00:22:03
Якість: 720p

Відео: кодек: розмір кадру: 1280 х 720 бітрейт: 2700 кб/с
Аудіо # 1: мова: українська переклад: професійний дубльований кодек: 2.0 бітрейт: 192 кб/с
Аудіо # 2: мова: англійська переклад: оригінал кодек: 5.1 бітрейт: 384 кб/с
Джерело озвучення:
Субтитри: мова: англійська тип: програмні (м'які) формат: *.srt
Про файл
General
Unique ID : 177363096950395454226820796747817727641 (0x856EE3D368D22586848FE3900B80B699)
Complete name : E:\MULTFILMS\Lego.Marvel Super Heroes.Avengers Reassembled.2015.720p.HDTRip.Ukr.Eng.
Format :
Format version : Version 4 / Version 2
File size : 523 MiB
Duration : 22mn 3s
Overall bit rate : 3 318 Kbps
Movie name : Lego.Marvel Super Heroes.Avengers Reassembled by sergiyko
Encoded date : UTC 2017-03-18 19:32:54
Writing application : mkvmerge v9.8.0 ('Kuglblids') 64bit
Writing library : libebml v1.3.4 + libmatroska v1.4.5
DURATION : 00:22:03.296000000
NUMBER_OF_FRAMES : 41353
NUMBER_OF_BYTES : 31759104
_STATISTICS_WRITING_APP : mkvmerge v9.8.0 ('Kuglblids') 64bit
_STATISTICS_WRITING_DATE_UTC : 2017-03-18 19:32:54
_STATISTICS_TAGS : BPS DURATION NUMBER_OF_FRAMES NUMBER_OF_BYTES

Video
ID : 1
Format : AVC
Format/Info : Advanced Video Codec
Format profile : [email protected]
Format settings, CABAC : Yes
Format settings, ReFrames : 9 frames
Codec ID : V_MPEG4/ISO/AVC
Duration : 22mn 3s
Bit rate : 2 676 Kbps
Width : 1 280 pixels
Height : 720 pixels
Display aspect ratio : 16:9
Frame rate mode : Constant
Frame rate : 23.976 fps
Color space : YUV
Chroma subsampling : 4:2:0
Bit depth : 8 bits
Scan type : Progressive
Bits/(Pixel*Frame) : 0.121
Stream size : 422 MiB (81%)
Title : Lego.Marvel Super Heroes.Avengers Reassembled
Writing library : core 148 r2638 7599210
Encoding settings : cabac=1 / ref=9 / deblock=1:1:1 / analyse=0x3:0x113 / me=umh / subme=8 / psy=1 / psy_rd=0.40:0.00 / mixed_ref=1 / me_range=16 / chroma_me=1 / trellis=1 / 8x8dct=1 / cqm=0 / deadzone=21,11 / fast_pskip=1 / chroma_qp_offset=-2 / threads=12 / lookahead_threads=3 / sliced_threads=0 / nr=0 / decimate=1 / interlaced=0 / bluray_compat=0 / constrained_intra=0 / bframes=5 / b_pyramid=2 / b_adapt=2 / b_bias=0 / direct=3 / weightb=1 / open_gop=0 / weightp=2 / keyint=250 / keyint_min=25 / scenecut=40 / intra_refresh=0 / rc_lookahead=50 / rc=crf / mbtree=1 / crf=18.0 / qcomp=0.60 / qpmin=0 / qpmax=69 / qpstep=4 / ip_ratio=1.40 / aq=1:0.60
Language : English
Default : Yes
Forced : No

Audio #1
ID : 2
Format : AC-3
Format/Info : Audio Coding 3
Mode extension : CM (complete main)
Format settings, Endianness : Big
Codec ID : A_AC3
Duration : 22mn 3s
Bit rate mode : Constant
Bit rate : 192 Kbps
Channel(s) : 2 channels
Channel positions : Front: L R
Sampling rate : 48.0 KHz
Compression mode : Lossy
Stream size : 30.3 MiB (6%)
Title : DUB | ПлюсПлюс
Language : Ukrainian
Default : Yes
Forced : Yes

Audio #2
ID : 3
Format : AC-3
Format/Info : Audio Coding 3
Mode extension : CM (complete main)
Format settings, Endianness : Big
Codec ID : A_AC3
Duration : 22mn 3s
Bit rate mode : Constant
Bit rate : 384 Kbps
Channel(s) : 6 channels
Channel positions : Front: L C R, Side: L R, LFE
Sampling rate : 48.0 KHz
Compression mode : Lossy
Stream size : 60.6 MiB (12%)
Title : Original
Language : English
Default : No
Forced : No

Text
ID : 4
Format : UTF-8
Codec ID : S_TEXT/UTF8
Codec ID/Info : UTF-8 Plain Text
Title : CC
Language : English
Default : No
Forced : No
Скріншоти:


Запис/зведення: sergiyko


 Трекер:    Зареєстрований   

Завантажити / скачати мультфільм українською



відео для новачків



 Зареєстрований:   2017-03-18 22:42
 Розмір:   523 MB 
 Оцінка мультфільму:   8.5/10 (Голосів: 6)
   
Ваш часовий пояс: GMT + 2 Години

Нова тема   Відповісти