Костянтин (Сезон 1) / Constantine (Season 1) (2014–2015) 720p Ukr/Eng | Sub Eng

Нові коментарі

Нова тема   Відповісти
Автор Повідомлення
Anonymous 







2017-03-18 16:11  
Костянтин (Сезон 1) / Constantine (Season 1) (2014–2015) 720p Ukr/Eng | Sub Eng

Костянтин (Сезон 1) / Constantine (Season 1) (2014–2015) 720p Ukr/Eng | Sub Eng


Жанр: фентезі, жахи, драма
Країна: США



Кінокомпанія: DC Comics, Warner Bros. Television
Режисер: Ніл Маршалл
Актори: Метт Райан, Люсі Гріффітс, Анхелика Селая, Херолд Перріно, Чарльз Халфорд, Майлз Андерсон, Джеремі Девіс, Джулія Леман, Марк Ешворт, Хілларі Брант

Сюжет:
Мисливець на демонів і окультист Джон Костянтин спеціалізується на знищенні пекельних створінь. Озброєний таємничими знаннями темних мистецтв і своїм гострим розумом, він веде нерівну боротьбу... ну або принаймні вів. Окільки його душа вже все одно проклята і потрапить в пекло, він вирішує залишити життя борця за добро. Але коли демони націлюються на Лів, доньку одного з найдавніших друзів Костянтина, він неохоче повертається, і він зробить усе можливе, щоб врятувати її.


Тривалість: 1 серія: 43:00 (цілком серій: 13)
Перелік серій
01. Non Est Asylum
02. The Darkness Beneath
03. The Devil's Vinyl
04. A Feast of Friends
05. Danse Vaudou
06. Rage of Caliban
07. Blessed are the Damned
08. The Saint of Last Resorts (Part 1)
09. The Saint of Last Resorts (Part 2)
10. Quid Pro Quo
11. A Whole World Out There
12. Angels and Ministers of Grace
13. Waiting for the Man
Якість:
Відео:
кодек:
розмір кадру: 1280 х 718
бітрейт: ~4000 кб/с

Аудіо # 1:
мова: українська
переклад: багатоголосий закадровий
кодек: 2.0
бітрейт: 192 кб/с
першоджерело: https://toloka.to/t80316

Аудіо # 2:
мова: англійська
переклад: оригінал
кодек: 5.1
бітрейт: 384 кб/с

Джерело озвучення:


Субтитри:
мова: англійська
тип: програмні (м'які)
формат: *.srt
Info
General
Unique ID : 250137917297190640430843269086158774022 (0xBC2ECF7DE814BB0AB7E55A4BBA87DF06)
Complete name : E:\_inbox\torrents\Support\Constantine (Season 1) [, 720p, Ukr, Eng]\01. Non Est Asylum.
Format :
Format version : Version 4 / Version 2
File size : 1.44 GiB
Duration : 43 min 0 s
Overall bit rate : 4 794 kb/s
Encoded date : UTC 2017-03-15 19:02:56
Writing application : v9.9.0 ('Pick Up') 64bit
Writing library : libebml v1.3.4 + v1.4.5

Video
ID : 1
Format : AVC
Format/Info : Advanced Video Codec
Format profile : [email protected]
Format settings, CABAC : No
Format settings, ReFrames : 2 frames
Codec ID : V_MPEG4/ISO/AVC
Duration : 43 min 0 s
Bit rate : 4 216 kb/s
Width : 1 280 pixels
Height : 718 pixels
Display aspect ratio : 16:9
Frame rate mode : Constant
Frame rate : 23.976 (23976/1000) FPS
Color space : YUV
Chroma subsampling : 4:2:0
Bit depth : 8 bits
Scan type : Progressive
Bits/(Pixel*Frame) : 0.191
Stream size : 1.27 GiB (88%)
Language : English
Default : Yes
Forced : No
Color range : Limited
Color primaries : BT.709
Transfer characteristics : BT.709
Matrix coefficients : BT.709

Audio #1
ID : 2
Format : AC-3
Format/Info : Audio Coding 3
Mode extension : CM (complete main)
Format settings, Endianness : Big
Codec ID : A_AC3
Duration : 43 min 0 s
Bit rate mode : Constant
Bit rate : 192 kb/s
Channel(s) : 2 channels
Channel positions : Front: L R
Sampling rate : 48.0 kHz
Frame rate : 31.250 FPS (1536 spf)
Bit depth : 16 bits
Compression mode : Lossy
Stream size : 59.1 MiB (4%)
Title : Новий
Language : Ukrainian
Default : Yes
Forced : No

Audio #2
ID : 3
Format : AC-3
Format/Info : Audio Coding 3
Mode extension : CM (complete main)
Format settings, Endianness : Big
Codec ID : A_AC3
Duration : 43 min 0 s
Bit rate mode : Constant
Bit rate : 384 kb/s
Channel(s) : 6 channels
Channel positions : Front: L C R, Side: L R, LFE
Sampling rate : 48.0 kHz
Frame rate : 31.250 FPS (1536 spf)
Bit depth : 16 bits
Compression mode : Lossy
Stream size : 118 MiB (8%)
Language : English
Default : No
Forced : No

Text
ID : 4
Format : UTF-8
Codec ID : S_TEXT/UTF8
Codec ID/Info : UTF-8 Plain Text
Duration : 41 min 55 s
Bit rate : 72 b/s
Count of elements : 852
Stream size : 22.2 KiB (0%)
Language : English
Default : No
Forced : No
Скріншоти
Джерело: &
Особиста оцінка: 8 - мені сподобалося




Бронзовий реліз (на рейтинг впливає 75% завантаженого)
 Трекер:    Зареєстрований   

Завантажити / скачати серіал українською



відео для новачків



 Зареєстрований:   2017-03-18 16:11
 Розмір:   18.12 GB 
 Оцінка серіалу:   5.4/10 (Голосів: 22)
   
Anonymous 







2017-03-18 17:30  
Звук з цього релізу https://toloka.to/t80316.
drop_plz 
Попереджень: 2
Попереджень: 2 


З нами з: 07.02.14
Востаннє: 03.12.20
Повідомлень: 2765

2017-03-18 17:55  
Цитата:
Якість:

Anonymous 







2017-03-18 18:08  
drop_plz
Дякую за зауваження, виправив це й додав джерело звуку у опис.

Пнути б адміна, щоб більше якостей додав Happy. Та й логотипи деяких каналів оновити не завадить.

Ваш часовий пояс: GMT + 2 Години

Нова тема   Відповісти