Корона (Сезон 1) / The Crown (Season 1) (2016) 1080p Ukr/Eng | Sub Ukr/Eng

Нові коментарі

Нова тема   Відповісти
Автор Повідомлення
НеЗупиняйПродакшн 
Відео Гуртом - озвучення
Відео Гуртом - озвучення


З нами з: 28.07.15
Востаннє: 21.10.17
Повідомлень: 428

2017-03-17 13:41  
_________________________________________________________________________________



Корона / The Crown (2016) 1080p Ukr/Eng | Sub Ukr/Eng

Корона (Сезон 1) / The Crown (Season 1) (2016) 1080p Ukr/Eng | Sub Ukr/Eng


Жанр: драма, біографія, історія
Країна: США, Велика Британія



Кінокомпанія: Netflix
Режисер: Стівен Делдрі
Актори: Клер Фой, Мет Сміт, Ванесса Кірбі, Мартін Бішоп, Ейлін Еткінс, Алекс Дженнінґс, Ліа Вільямс та інші

Сюжет:
Драматичний телесеріал, створений Пітером Морґаном для Netflix, який розповідає історію британської королівської сім'ї в середині XX століття.


Тривалість: 1 серія: ~52 хв. (цілком серій: 10)
Перелік серій
1. Волфетрон Сплеш
2. На розі Гайд-парку
3. Віндзор
4. Рука Господа
5. Дим і дзеркала
6. Гелігніт
7. Знання - сила
8. Гордість і радість
9. Убивці
10. Ґлоріана
Якість: 1080p
Відео:
кодек:
розмір кадру: 1920 х 960
бітрейт: 10 Мб/с

Аудіо # 1:
озвучення: професійне багатоголосе закадрове
кодек: 5.1
бітрейт: 640 кб/с

Озвучено студією НеЗупиняйПродакшн


Аудіо # 2:
мова: англійська
переклад: оригінал
кодек: 5.1
бітрейт: 384 кб/с

Субтитри # 1:
мова: українська
тип: програмні (м'які)
формат: *.srt

Субтитри # 2:
мова: англійська
тип: програмні (м'які)
формат: *.srt

Субтитри # 3:
мова: англійська (SDH)
тип: програмні (м'які)
формат: *.srt
Скріншоти







Info

Video
ID : 1
Format : AVC
Format/Info : Advanced Video Codec
Format profile : [email protected]
Format settings, CABAC : Yes
Format settings, ReFrames : 4 frames
Codec ID : V_MPEG4/ISO/AVC
Duration : 56 min 10 s
Bit rate : 10.9 Mb/s
Width : 1 920 pixels
Height : 960 pixels
Display aspect ratio : 2.000
Frame rate mode : Constant
Frame rate : 25.000 FPS
Color space : YUV
Chroma subsampling : 4:2:0
Bit depth : 8 bits
Scan type : Progressive
Bits/(Pixel*Frame) : 0.237
Stream size : 4.28 GiB (91%)
Writing library : core 148 r2721+7 72d53ab / tmod 162ad1b X86_64
Encoding settings : cabac=1 / ref=4 / deblock=1:-3:-3 / analyse=0x3:0x133 / me=umh / subme=11 / psy=1 / fade_compensate=0.00 / psy_rd=1.05:0.15 / mixed_ref=1 / me_range=36 / chroma_me=1 / trellis=2 / 8x8dct=1 / cqm=0 / deadzone=6,6 / fast_pskip=0 / chroma_qp_offset=-3 / threads=12 / lookahead_threads=3 / sliced_threads=0 / nr=0 / decimate=0 / interlaced=0 / bluray_compat=0 / constrained_intra=0 / fgo=0 / bframes=10 / b_pyramid=2 / b_adapt=2 / b_bias=0 / direct=3 / weightb=1 / open_gop=0 / weightp=2 / keyint=250 / keyint_min=25 / scenecut=40 / intra_refresh=0 / rc=crf / mbtree=0 / crf=17.0000 / qcomp=0.75 / qpmin=0:0:0 / qpmax=69:69:69 / qpstep=4 / ip_ratio=1.10 / pb_ratio=1.10 / aq=3:0.70 / aq-sensitivity=10.00 / aq-factor=1.00:1.00:1.00 / aq2=0 / aq3=0
Language : English
Default : Yes
Forced : No

Audio #1
ID : 2
Format : AC-3
Format/Info : Audio Coding 3
Format settings, Endianness : Big
Codec ID : A_AC3
Duration : 56 min 10 s
Bit rate mode : Constant
Bit rate : 640 kb/s
Channel(s) : 6 channels
Channel positions : Front: L C R, Side: L R, LFE
Sampling rate : 48.0 kHz
Frame rate : 31.250 FPS (1536 spf)
Bit depth : 16 bits
Compression mode : Lossy
Stream size : 257 MiB (5%)
Title : Українська (НеЗупиняйПродакшн)
Language : Ukrainian
Service kind : Complete Main
Default : Yes
Forced : No

Audio #2
ID : 3
Format : AC-3
Format/Info : Audio Coding 3
Format settings, Endianness : Big
Codec ID : A_AC3
Duration : 56 min 10 s
Bit rate mode : Constant
Bit rate : 384 kb/s
Channel(s) : 6 channels
Channel positions : Front: L C R, Side: L R, LFE
Sampling rate : 48.0 kHz
Frame rate : 31.250 FPS (1536 spf)
Bit depth : 16 bits
Compression mode : Lossy
Stream size : 154 MiB (3%)
Language : English
Service kind : Complete Main
Default : No
Forced : No

Text #1
ID : 4
Format : UTF-8
Codec ID : S_TEXT/UTF8
Codec ID/Info : UTF-8 Plain Text
Duration : 54 min 45 s
Bit rate : 70 b/s
Count of elements : 530
Stream size : 28.4 KiB (0%)
Title : Українська
Language : Ukrainian
Default : Yes
Forced : No

Text #2
ID : 5
Format : UTF-8
Codec ID : S_TEXT/UTF8
Codec ID/Info : UTF-8 Plain Text
Duration : 51 min 56 s
Bit rate : 46 b/s
Count of elements : 521
Stream size : 17.5 KiB (0%)
Title : English
Language : English
Default : No
Forced : No

Text #3
ID : 6
Format : UTF-8
Codec ID : S_TEXT/UTF8
Codec ID/Info : UTF-8 Plain Text
Duration : 54 min 26 s
Bit rate : 51 b/s
Count of elements : 615
Stream size : 20.4 KiB (0%)
Title : English (SDH)
Language : English
Default : No
Forced : No


Авторський реліз (завантажувати можна без реєстрації)
 Трекер:    Зареєстрований   

Завантажити / скачати серіал українською



відео для новачків



 Зареєстрований:   2017-07-19 17:35
 Розмір:   45.08 GB 
 Оцінка серіалу:   10/10 (Голосів: 10)
   
don pedro 
Попереджень: 1
Попереджень: 1 


З нами з: 29.06.11
Востаннє: 21.10.17
Повідомлень: 10406

2017-05-13 23:31  
Хоч тут не про зеків, лягавих, супергероїв і фатальних красунь.
НеЗупиняйПродакшн 
Відео Гуртом - озвучення
Відео Гуртом - озвучення


З нами з: 28.07.15
Востаннє: 21.10.17
Повідомлень: 428

2017-06-09 11:57  

Чудові новини! Збір коштів на озвучення "Корони" успішно завершено. Дякуємо усім, хто долучився!
Орієнтовна дата виходу серіалу українською - початок липня.

mrsdoubtfire 
Свій


З нами з: 22.10.15
Востаннє: 21.10.17
Повідомлень: 135

2017-07-19 18:31  
Що може бути кращим від Netflix? Тільки ТолокаWink (1)
uaxpasha 
Поважний учасник


З нами з: 05.08.12
Востаннє: 21.10.17
Повідомлень: 157

2017-10-20 22:37  
Топ серіял. Чекаю коли будете збирати гроші на другий сезон
Ваш часовий пояс: GMT + 2 Години

Нова тема   Відповісти