Захесник / Defendor (2009) 1080p Ukr/Eng | Sub Eng

Нові коментарі

Нова тема   Відповісти
Автор Повідомлення
НеЗупиняйПродакшн 
Відео Гуртом - озвучення
Відео Гуртом - озвучення


З нами з: 28.07.15
Востаннє: 20.10.17
Повідомлень: 425

2017-03-16 12:33  
_________________________________________________________________________________

Захесник: 720p | AVC


Захесник / Defendor (2009) 1080p Ukr/Eng | Sub Eng



Жанр: драма, комедія
Країна: Канада



Режисер: Пітер Стеббінґс
Актори: Вуді Гаррельсон, Еліас Котеас, Майкл Келлі, Кет Деннінгс, Сандра О, Кларк Джонсон, Дакота Гойо, Ліза Рей

Сюжет:
Простий хлопець Артур Поппінґтон вирішує, що він супергерой Захисник, і щоночі, відправляється на вулиці міста в пошуках свого головного ворога Капітана Індастрі - наркодилера, якого Артур помилково винить в смерті матері. Однак замість Індастрі герой зустрічає молоду повію і разом з нею, а також при моральній підтримці свого лікуючого психіатра, «доводить, що кожен здатний зробити світ кращим».


Тривалість: 01:41:23
Якість: 1080p
Відео:
кодек:
розмір кадру: 1920 х 806
бітрейт: 11 Мб/с

Аудіо # 1:
мова: українська
озвучення: професійне багатоголосе закадрове
кодек: 5.1
бітрейт: 448 кб/с

Озвучено студією "НеЗупиняйПродакшн" на замовлення користувача NemoInFire



Аудіо # 2:
мова: англійська
переклад: оригінал
кодек: 5.1
бітрейт: 1510 кб/с

Субтитри:
мова: англійська
тип: програмні (м'які)
формат: *.srt
Info
Video
ID : 1
Format : AVC
Format/Info : Advanced Video Codec
Format profile : [email protected]
Format settings, CABAC : Yes
Format settings, ReFrames : 5 frames
Codec ID : V_MPEG4/ISO/AVC
Duration : 1 h 41 min
Bit rate : 11.0 Mb/s
Width : 1 920 pixels
Height : 806 pixels
Display aspect ratio : 2.40:1
Frame rate mode : Constant
Frame rate : 23.976 (23976/1000) FPS
Color space : YUV
Chroma subsampling : 4:2:0
Bit depth : 8 bits
Scan type : Progressive
Bits/(Pixel*Frame) : 0.296
Stream size : 7.77 GiB (85%)
Writing library : core 94 r1583 7608d73
Encoding settings : cabac=1 / ref=5 / deblock=1:-3:-3 / analyse=0x3:0x113 / me=tesa / subme=10 / psy=1 / psy_rd=0.80:0.00 / mixed_ref=1 / me_range=16 / chroma_me=1 / trellis=2 / 8x8dct=1 / cqm=0 / deadzone=21,11 / fast_pskip=0 / chroma_qp_offset=-2 / threads=12 / sliced_threads=0 / nr=0 / decimate=0 / interlaced=0 / constrained_intra=0 / bframes=5 / b_pyramid=2 / b_adapt=2 / b_bias=0 / direct=3 / weightb=1 / weightp=2 / keyint=250 / keyint_min=25 / scenecut=40 / intra_refresh=0 / rc=2pass / mbtree=0 / bitrate=11000 / ratetol=1.0 / qcomp=0.60 / qpmin=10 / qpmax=51 / qpstep=4 / cplxblur=20.0 / qblur=0.5 / ip_ratio=1.40 / pb_ratio=1.30 / aq=1:0.60
Language : English
Default : No
Forced : No

Audio #1
ID : 2
Format : AC-3
Format/Info : Audio Coding 3
Mode extension : CM (complete main)
Format settings, Endianness : Big
Codec ID : A_AC3
Duration : 1 h 41 min
Bit rate mode : Constant
Bit rate : 448 kb/s
Channel(s) : 6 channels
Channel positions : Front: L C R, Side: L R, LFE
Sampling rate : 48.0 kHz
Frame rate : 31.250 FPS (1536 spf)
Compression mode : Lossy
Stream size : 325 MiB (3%)
Title : Українська (НеЗупиняйПродакшн)
Language : Ukrainian
Default : Yes
Forced : No

Audio #2
ID : 3
Format :
Format/Info : Digital Theater Systems
Mode : 16
Format settings, Endianness : Big
Codec ID : A_DTS
Duration : 1 h 41 min
Bit rate mode : Constant
Bit rate : 1 509 kb/s
Channel(s) : 6 channels
Channel positions : Front: L C R, Side: L R, LFE
Sampling rate : 48.0 kHz
Frame rate : 93.750 FPS (512 spf)
Bit depth : 16 bits
Compression mode : Lossy
Stream size : 1.07 GiB (12%)
Title : 5.1 1536 Kbps [Оригінал]
Language : English
Default : No
Forced : No

Text
ID : 4
Format : UTF-8
Codec ID : S_TEXT/UTF8
Codec ID/Info : UTF-8 Plain Text
Duration : 1 h 37 min
Bit rate : 49 b/s
Count of elements : 1123
Stream size : 35.8 KiB (0%)
Language : English
Default : No
Forced : No

Menu
00:00:00.000 : :00:00:00.000
00:04:52.834 : :00:04:52.834
00:10:57.031 : :00:10:57.031
00:18:46.125 : :00:18:46.125
00:25:45.377 : :00:25:45.377
00:33:44.981 : :00:33:44.981
00:37:46.723 : :00:37:46.723
00:43:29.816 : :00:43:29.816
00:49:31.510 : :00:49:31.510
00:54:26.889 : :00:54:26.889
00:59:48.376 : :00:59:48.376
01:07:41.432 : :01:07:41.432
01:15:15.928 : :01:15:15.928
01:21:03.067 : :01:21:03.067
01:26:07.537 : :01:26:07.537
01:34:24.909 : :01:34:24.909
Скріншоти







Авторський реліз (завантажувати можна без реєстрації)
 Трекер:    Зареєстрований   

Завантажити / скачати фільм українською



відео для новачків



 Зареєстрований:   2017-03-16 12:33
 Розмір:   9.16 GB 
 Оцінка фільму:   8.9/10 (Голосів: 8)
   
Інші релізи
hetzendorf 
Відео Гуртом - підтримка та поширення
Відео Гуртом - підтримка та поширення


З нами з: 23.07.15
Востаннє: 21.10.17
Повідомлень: 496

2017-03-16 14:18  
Аналог «Super»?
The_Marlboro 
Відео Гуртом - субтитрування
Відео Гуртом - субтитрування


З нами з: 23.05.10
Востаннє: 20.10.17
Повідомлень: 2968

2017-03-16 14:28  
hetzendorf, ну не прямий аналог, але тема та ж, як на мене то Super більш комедія ніж цей.
Patriot_ukr 
VIP


З нами з: 06.04.15
Востаннє: 20.10.17
Повідомлень: 1797

2017-03-16 21:36  
Чому не зробили українську доріжку у ДТС?
konashevuch 
Новенький


З нами з: 02.01.17
Востаннє: 04.10.17
Повідомлень: 1

2017-03-17 16:50  
Чому "ЗахЕсник" а не "Захисник"
igor911 
Відео Гуртом
Відео Гуртом


З нами з: 18.01.08
Востаннє: 21.10.17
Повідомлень: 7937

2017-03-17 17:06  
konashevuch, тому що https://toloka.to/t80713#885748
ftp 
Новенький


З нами з: 24.05.12
Востаннє: 16.10.17
Повідомлень: 18

2017-03-21 20:57  
фільм як?
Hovik 
Частий відвідувач


З нами з: 28.12.15
Востаннє: 20.10.17
Повідомлень: 30

2017-03-23 23:16  
Фільм чудовий, хоч і сумний.
unbreakable04 
Новенький


З нами з: 21.11.12
Востаннє: 20.10.17
Повідомлень: 4

2017-03-24 16:06  
ЗахЕсник))
Patriot_ukr 
VIP


З нами з: 06.04.15
Востаннє: 20.10.17
Повідомлень: 1797

2017-03-24 16:17  
unbreakable04
DefendOr))

Ваш часовий пояс: GMT + 2 Години

Нова тема   Відповісти