Лего. Супергерої Марвел: Максимальне перезавантаження / Lego Marvel Super Heroes: Maximum Overload (2013) 720p Ukr/Eng

Нові коментарі

Нова тема   Відповісти
Автор Повідомлення
sergiyko.5 
VIP


З нами з: 25.02.16
Востаннє: 19.08.17
Повідомлень: 993

2017-03-11 22:18  
Лего. Супергерої Марвел: Максимальне перезавантаження / Lego Marvel Super Heroes: Maximum Overload (2013) 720p Ukr/Eng

Лего. Супергерої Марвел: Максимальне перезавантаження / Lego Marvel Super Heroes: Maximum Overload (2013) 720p Ukr/Eng

Жанр: анімація, фантастика, бойовик
Країна: США

Режисер: Грег Річардсон
Актори: Трой Бейкер, Дрейк Белл, Фред Татаскьйор, Ді Бредлі Бейкер, Стівен Блум, Адріан Пасдар, Грег Сайпс

Сюжет:
Продовження одвічного протистояння добра і зла. Тут зібралися улюблені герої з різних мультфільмів, які нині приміряють незвичайні образи. Вони володіють тими ж мегаздібностями, але тепер у них з'являться нові суперможливості. Цілі супергероїв залишилися ті ж самі: вони хочуть здобути перемогу над злими істотами. Чи зможуть персонажі у нових образах вести гідну боротьбу з ворогами? Один тільки підступний Локі, який кинув виклик одночасно всім героям, чого вартий! Проте для того, щоб перемогти Халка, Залізну людину, Чорну вдову і Росомаху віч-на-віч, у нього певно не вистачить сил.




Тривалість: 00:21:06
Якість:

Відео: кодек: розмір кадру: 1280 х 720 бітрейт: 3000 кб/с
Аудіо # 1: мова: українська переклад: професійний дубльований кодек: 2.0 бітрейт: 192 кб/с
Аудіо # 2: мова: англійська переклад: оригінал кодек: 2.0 бітрейт: 128 кб/с
Джерело озвучення:
Info
General
Unique ID : 182620684538010081597839739593778013457 (0x896376E8448C68BB8C3A2809C5CC2511)
Complete name : E:\MULTFILMS\Lego.Marvel Super Heroes. Maximum Overload.720p..Ukr.Eng.
Format :
Format version : Version 4 / Version 2
File size : 514 MiB
Duration : 21 min 6 s
Overall bit rate : 3 404 kb/s
Movie name : Marvel Super Heroes. Maximum Overload by sergiyko
Encoded date : UTC 2017-03-11 19:02:38
Writing application : mkvmerge v9.8.0 ('Kuglblids') 64bit
Writing library : libebml v1.3.4 + libmatroska v1.4.5

Video
ID : 1
Format : AVC
Format/Info : Advanced Video Codec
Format profile : [email protected]
Format settings, CABAC : Yes
Format settings, ReFrames : 5 frames
Codec ID : V_MPEG4/ISO/AVC
Duration : 21 min 6 s
Bit rate : 3 082 kb/s
Width : 1 280 pixels
Height : 720 pixels
Display aspect ratio : 16:9
Frame rate mode : Constant
Frame rate : 25.000 FPS
Color space : YUV
Chroma subsampling : 4:2:0
Bit depth : 8 bits
Scan type : Progressive
Bits/(Pixel*Frame) : 0.134
Stream size : 465 MiB (91%)
Title : Marvel Super Heroes. Maximum Overload
Writing library : core 148 r2638 7599210
Encoding settings : cabac=1 / ref=5 / deblock=1:0:0 / analyse=0x3:0x113 / me=umh / subme=8 / psy=1 / psy_rd=1.00:0.00 / mixed_ref=1 / me_range=16 / chroma_me=1 / trellis=1 / 8x8dct=1 / cqm=0 / deadzone=21,11 / fast_pskip=1 / chroma_qp_offset=-2 / threads=4 / lookahead_threads=2 / sliced_threads=0 / nr=0 / decimate=1 / interlaced=0 / bluray_compat=0 / constrained_intra=0 / bframes=3 / b_pyramid=2 / b_adapt=2 / b_bias=0 / direct=3 / weightb=1 / open_gop=0 / weightp=2 / keyint=250 / keyint_min=25 / scenecut=40 / intra_refresh=0 / rc_lookahead=50 / rc=crf / mbtree=1 / crf=18.0 / qcomp=0.60 / qpmin=0 / qpmax=69 / qpstep=4 / ip_ratio=1.40 / aq=1:1.00
Language : English
Default : Yes
Forced : No
Color range : Limited
Matrix coefficients : BT.709

Audio #1
ID : 2
Format : AC-3
Format/Info : Audio Coding 3
Mode extension : CM (complete main)
Format settings, Endianness : Big
Codec ID : A_AC3
Duration : 21 min 6 s
Bit rate mode : Constant
Bit rate : 192 kb/s
Channel(s) : 2 channels
Channel positions : Front: L R
Sampling rate : 48.0 kHz
Frame rate : 31.250 FPS (1536 spf)
Bit depth : 16 bits
Compression mode : Lossy
Stream size : 29.0 MiB (6%)
Title : DUB | ПлюсПлюс
Language : Ukrainian
Default : Yes
Forced : Yes

Audio #2
ID : 3
Format :
Format/Info : Advanced Audio Codec
Format profile : LC
Codec ID : A_AAC
Duration : 21 min 6 s
Bit rate : 128 kb/s
Channel(s) : 2 channels
Channel positions : Front: L R
Sampling rate : 48.0 kHz
Frame rate : 46.875 FPS (1024 spf)
Compression mode : Lossy
Stream size : 19.4 MiB (4%)
Title : Original
Language : English
Default : No
Forced : No

Скріншоти:



Автор запису/ріпу: sergiyko


 Трекер:    Зареєстрований   

Завантажити / скачати мультфільм українською



відео для новачків



 Зареєстрований:   2017-03-11 22:18
 Розмір:   514 MB 
 Оцінка мультфільму:   8.3/10 (Голосів: 6)
   
Ваш часовий пояс: GMT + 2 Години

Нова тема   Відповісти