Король Джуліен / Король Джуліан (Сезон 4) / All Hail King Julien (Season 4) (2016) 720p Ukr/Eng | sub Eng

Нові коментарі

Нова тема   Відповісти
Останній раз роздавалося Lucky13 (2021-04-20)
Автор Повідомлення
Anonymous 







2017-03-11 19:24  
Король Джуліен / Король Джуліан (Сезон 4) / All Hail King Julien (Season 4) (2016) 720p Ukr/Eng | sub Eng

Король Джуліен / Король Джуліан (Сезон 4) / All Hail King Julien (Season 4) (2016) 720p Ukr/Eng | sub Eng

Жанр: дитячий, комедія, пригодницький
Країна: США



Кінокомпанія: DreamWorks Animation
Режисер: Мітч Вотсон, Брет Хааланд
Сюжет:
Події розвиваються на барвистому, мальовничому і незайманому острові з назвою Мадагаскар. Король Джуліан править своїми підлеглими мудро і справедливо. Хоча, насправді, це не про нього, адже цей лемур не любить нудьгувати, і не дозволяє цього робити нікому з королівства. Можливо, іноді його егоїзм і ексцентричність зашкалюють, але він завжди керується своїм знаменитим висловом «Лови момент!». Джуліан старанно намагається забезпечити своїм підлеглим цікаве, екстримальне, веселе, а іноді навіть небезпечне проведення часу. А все для того, щоб вони навчилися проживати кожен свій день, немов останній у своєму житті. Серіал розповідає про ті безтурботні часи, коли на острові ще не з'явилася відома четвірка з Нью-Йорка.


Тривалість: 1 серія: 23:33 (цілком серій: 13)
Перелік серій
01. Шоу "Хай живе король Джуліен" / The All Hail King Julien Show
02. Кловер у власному світі / The Neverending Clover
03. Хто малює? / Who Arted?
04. Те дурне відчуття / That Sinking Feeling
05. Джунглевий півень / The Jungle Rooster
06. Книга манер / The Good Book
07. Король і Місіс Морт / The King and Mrs. Mort
08. Король-суперзірка / King Julien Superstar!
09. Панчуринський кандидат / The Panchurian Candidate
10. Гнів Мортикуса Кана / The Wrath of Morticus Khan
11. Кото, високий і простий / Koto, Plain and Tall
12. Я — Моріс / I, Maurice
13. Розкоронуйте мене / Un-King Me
Якість:
Відео:
кодек:
розмір кадру: 1280 х 720
бітрейт: ~2500 кб/с

Аудіо # 1:
мова: українська (QTV)
переклад: багатоголосий закадровий
кодек: 2.0
бітрейт: 192 кб/с

Аудіо # 2:
мова: англійська
переклад: оригінал
кодек: 2.0
бітрейт: 126 кб/с

Джерело озвучення:


Субтитри (форсовані, на місце без перекладу у другій серії):
мова: українська
тип: програмні (м'які)
формат: *.srt

Субтитри:
мова: англійська
тип: програмні (м'які)
формат: *.srt
Info
General
Unique ID : 223956668273614460696784834136740787981 (0xA87C7C41089FA0EA859DDCE2E568F70D)
Complete name : E:\_inbox\torrents\Support\All Hail King Julien (Season 4) [, 720p, Ukr, Eng]\02. The Neverending Clover.
Format :
Format version : Version 4 / Version 2
File size : 495 MiB
Duration : 23 min 33 s
Overall bit rate : 2 934 kb/s
Encoded date : UTC 2017-03-11 15:30:14
Writing application : v9.9.0 ('Pick Up') 64bit
Writing library : libebml v1.3.4 + v1.4.5

Video
ID : 1
Format : AVC
Format/Info : Advanced Video Codec
Format profile : [email protected]
Format settings, CABAC : Yes
Format settings, ReFrames : 5 frames
Codec ID : V_MPEG4/ISO/AVC
Duration : 23 min 33 s
Bit rate : 2 613 kb/s
Width : 1 280 pixels
Height : 720 pixels
Display aspect ratio : 16:9
Frame rate mode : Constant
Frame rate : 29.970 FPS
Color space : YUV
Chroma subsampling : 4:2:0
Bit depth : 8 bits
Scan type : Progressive
Bits/(Pixel*Frame) : 0.095
Stream size : 440 MiB (89%)
Writing library : core 142 r2479 dd79a61
Encoding settings : cabac=1 / ref=5 / deblock=1:0:0 / analyse=0x3:0x113 / me=umh / subme=8 / psy=1 / psy_rd=1.00:0.00 / mixed_ref=1 / me_range=16 / chroma_me=1 / trellis=1 / 8x8dct=1 / cqm=0 / deadzone=21,11 / fast_pskip=1 / chroma_qp_offset=-2 / threads=12 / lookahead_threads=2 / sliced_threads=0 / nr=0 / decimate=1 / interlaced=0 / bluray_compat=0 / constrained_intra=0 / bframes=3 / b_pyramid=2 / b_adapt=2 / b_bias=0 / direct=3 / weightb=1 / open_gop=0 / weightp=2 / keyint=300 / keyint_min=30 / scenecut=40 / intra_refresh=0 / rc_lookahead=50 / rc=crf / mbtree=1 / crf=18.0 / qcomp=0.60 / qpmin=0 / qpmax=69 / qpstep=4 / vbv_maxrate=17500 / vbv_bufsize=17500 / crf_max=0.0 / nal_hrd=none / filler=0 / ip_ratio=1.40 / aq=1:1.00
Default : Yes
Forced : No
Color range : Limited
Color primaries : BT.709
Transfer characteristics : BT.709
Matrix coefficients : BT.709

Audio #1
ID : 2
Format : AC-3
Format/Info : Audio Coding 3
Mode extension : CM (complete main)
Format settings, Endianness : Big
Codec ID : A_AC3
Duration : 23 min 33 s
Bit rate mode : Constant
Bit rate : 192 kb/s
Channel(s) : 2 channels
Channel positions : Front: L R
Sampling rate : 48.0 kHz
Frame rate : 31.250 FPS (1536 spf)
Bit depth : 16 bits
Compression mode : Lossy
Stream size : 32.4 MiB (7%)
Title : QTV
Language : Ukrainian
Default : Yes
Forced : No

Audio #2
ID : 3
Format :
Format/Info : Advanced Audio Codec
Format profile : LC
Codec ID : A_AAC
Duration : 23 min 33 s
Bit rate : 126 kb/s
Channel(s) : 2 channels
Channel positions : Front: L R
Sampling rate : 48.0 kHz
Frame rate : 46.875 FPS (1024 spf)
Compression mode : Lossy
Stream size : 21.3 MiB (4%)
Language : English
Default : No
Forced : No

Text #1
ID : 4
Format : UTF-8
Codec ID : S_TEXT/UTF8
Codec ID/Info : UTF-8 Plain Text
Duration : 30 s 197 ms
Bit rate : 173 b/s
Count of elements : 10
Stream size : 654 Bytes (0%)
Language : Ukrainian
Default : Yes
Forced : Yes

Text #2
ID : 5
Format : UTF-8
Codec ID : S_TEXT/UTF8
Codec ID/Info : UTF-8 Plain Text
Duration : 22 min 56 s
Bit rate : 99 b/s
Count of elements : 465
Stream size : 16.8 KiB (0%)
Language : English
Default : No
Forced : No
Скріншоти
Джерело: &


Бронзовий реліз (на рейтинг впливає 75% завантаженого)
 Трекер:    Зареєстрований   

Завантажити / скачати мультфільм українською



відео для новачків



 Зареєстрований:   2017-03-11 19:24
 Розмір:   6.66 GB 
 Оцінка мультсеріалу:   4.6/10 (Голосів: 20)
   
KotSilver 
Новенький


З нами з: 25.09.14
Востаннє: 19.04.21
Повідомлень: 11

2017-03-27 20:50  
Забагато туалетного гумору. Обі...али мультик.
Anonymous 







2017-10-15 11:35  
Виклав нові релізи цього мультсеріалу (усі 4 сезони):
1080p
AVC 400p

Ваш часовий пояс: GMT + 2 Години

Нова тема   Відповісти