Диявольський особняк / Cold Creek Manor (2003) 720p Ukr/Eng | Sub Eng

Нові коментарі

Нова тема   Відповісти
Останній раз роздавалося Bohdan-na (2017-08-23)
Автор Повідомлення
staf777 
Відео Гуртом - підтримка та поширення
Відео Гуртом - підтримка та поширення


З нами з: 16.11.16
Востаннє: 16.08.17
Повідомлень: 522

2017-03-11 10:13  
Диявольський особняк / Cold Creek Manor (2003) 720p Ukr/Eng | Sub Eng

Диявольський особняк / Cold Creek Manor (2003) 720p Ukr/Eng | Sub Eng


Жанр: драма, трилер, детектив
Країна: США, Канада, Велика Британія



Кінокомпанія:
Режисер: Майк Фіггіс
Актори: Денніс Квейд, Шерон Стоун, Стівен Дорфф, Джульєтт Льюїс, Крістен Стюарт, Райан Вілсон, Дена Ескелсон, Крістофер Пламмер, Саймон Рейнольдс, Кетлін Дуборг

Сюжет:
Подружжя Купер і Лія Тілсон роками чекали, щоб здійснити свою заповітну мрію про заміський будинок. І, нарешті, їхні сподівання справдилися, вони - власники надзвичайно красивого й великого маєтку «Холодний струмок».
Провінційний спокій, свіже повітря, величезна ділянка - ідеальне місце, щоб гідно зустріти старість і дожити до кінця віку, от тільки цей кінець може настати значно раніше, ніж передбачалося.


Тривалість: 01:58:55
Якість: 720p
Відео:
кодек:
розмір кадру: 1280x694
бітрейт: 9802 кб/с

Аудіо # 1:
мова: українська
переклад: багатоголосий закадровий
кодек: 2.0
бітрейт: 192 кб/с

Аудіо # 2:
мова: англійська
переклад: оригінал
кодек: 5.1
бітрейт: 640 кб/с

Субтитри #1-2:
мова: англійська
тип: програмні (м'які)
формат: *.srt
Info
General
Unique ID : 236792191016413003160700578218761323858 (0xB224846278BA0B79A2569868D2050552)
Complete name : J:\Фільми в HD\Трилер\Cold Creek Manor (2003) [Ukr,Eng sub.Eng] 720p [Hurtom].
Format :
Format version : Version 4 / Version 2
File size : 8.84 GiB
Duration : 1 h 58 min
Overall bit rate : 10.6 Mb/s
Movie name : Cold Creek Manor (2003) [Ukr,Eng sub.Eng] 720p [Hurtom]
Encoded date : UTC 2017-03-11 06:57:38
Writing application : mkvmerge v9.8.0 ('Kuglblids') 64bit
Writing library : libebml v1.3.4 + libmatroska v1.4.5

Video
ID : 1
Format : AVC
Format/Info : Advanced Video Codec
Format profile : [email protected]
Format settings, CABAC : Yes
Format settings, ReFrames : 9 frames
Codec ID : V_MPEG4/ISO/AVC
Duration : 1 h 58 min
Bit rate : 9 802 kb/s
Width : 1 280 pixels
Height : 694 pixels
Display aspect ratio : 1.85:1
Frame rate mode : Constant
Frame rate : 23.976 (24000/1001) FPS
Color space : YUV
Chroma subsampling : 4:2:0
Bit depth : 8 bits
Scan type : Progressive
Bits/(Pixel*Frame) : 0.460
Stream size : 8.14 GiB (92%)
Writing library : core 116 r2057 0ba8a9c
Encoding settings : cabac=1 / ref=9 / deblock=1:-3:-3 / analyse=0x3:0x133 / me=umh / subme=10 / psy=1 / psy_rd=1.00:0.00 / mixed_ref=1 / me_range=32 / chroma_me=1 / trellis=2 / 8x8dct=1 / cqm=0 / deadzone=21,11 / fast_pskip=0 / chroma_qp_offset=-2 / threads=18 / sliced_threads=0 / nr=0 / decimate=0 / interlaced=0 / bluray_compat=0 / constrained_intra=0 / bframes=7 / b_pyramid=2 / b_adapt=2 / b_bias=0 / direct=3 / weightb=1 / open_gop=0 / weightp=2 / keyint=250 / keyint_min=23 / scenecut=40 / intra_refresh=0 / rc_lookahead=40 / rc=crf / mbtree=0 / crf=17.0 / qcomp=0.65 / qpmin=0 / qpmax=40 / qpstep=4 / vbv_maxrate=50000 / vbv_bufsize=50000 / crf_max=0.0 / nal_hrd=none / ip_ratio=1.25 / pb_ratio=1.25 / aq=1:0.65
Language : English
Default : Yes
Forced : No

Audio #1
ID : 2
Format : AC-3
Format/Info : Audio Coding 3
Mode extension : CM (complete main)
Format settings, Endianness : Big
Codec ID : A_AC3
Duration : 1 h 58 min
Bit rate mode : Constant
Bit rate : 192 kb/s
Channel(s) : 2 channels
Channel positions : Front: L R
Sampling rate : 48.0 kHz
Frame rate : 31.250 FPS (1536 spf)
Bit depth : 16 bits
Compression mode : Lossy
Stream size : 163 MiB (2%)
Title : UA-MVO, K1|
Language : Ukrainian
Default : Yes
Forced : Yes

Audio #2
ID : 3
Format : AC-3
Format/Info : Audio Coding 3
Mode extension : CM (complete main)
Format settings, Endianness : Big
Codec ID : A_AC3
Duration : 1 h 58 min
Bit rate mode : Constant
Bit rate : 640 kb/s
Channel(s) : 6 channels
Channel positions : Front: L C R, Side: L R, LFE
Sampling rate : 48.0 kHz
Frame rate : 31.250 FPS (1536 spf)
Bit depth : 16 bits
Compression mode : Lossy
Stream size : 544 MiB (6%)
Language : English
Default : No
Forced : No

Text #1
ID : 4
Format : UTF-8
Codec ID : S_TEXT/UTF8
Codec ID/Info : UTF-8 Plain Text
Duration : 1 h 57 min
Bit rate : 53 b/s
Count of elements : 1897
Stream size : 46.4 KiB (0%)
Language : English
Default : No
Forced : No

Text #2
ID : 5
Format : UTF-8
Codec ID : S_TEXT/UTF8
Codec ID/Info : UTF-8 Plain Text
Duration : 1 h 58 min
Bit rate : 106 b/s
Count of elements : 1949
Stream size : 92.1 KiB (0%)
Language : English
Default : No
Forced : No

Menu
00:00:00.000 : en:00:00:00.000
00:11:01.369 : en:00:11:01.369
00:20:37.236 : en:00:20:37.236
00:32:29.656 : en:00:32:29.656
00:43:25.353 : en:00:43:25.353
00:54:37.608 : en:00:54:37.608
01:06:53.176 : en:01:06:53.176
01:14:54.365 : en:01:14:54.365
01:25:32.085 : en:01:25:32.085
01:34:08.309 : en:01:34:08.309
01:43:53.269 : en:01:43:53.269
01:53:49.197 : en:01:53:49.197
Скріншоти



Джерело: &
Особиста оцінка: 8 - мені сподобалося
Диявольський особняк / Cold Creek Manor (2003) 720p Ukr/Eng | Sub Eng


Срібний реліз (на рейтинг впливає 50% завантаженого)
 Трекер:    Зареєстрований   

Завантажити / скачати фільм українською



відео для новачків



 Зареєстрований:   2017-03-11 11:55
 Розмір:   8.84 GB 
 Оцінка фільму:   9.5/10 (Голосів: 4)
   
Інші релізи
igor911 
Відео Гуртом
Відео Гуртом


З нами з: 18.01.08
Востаннє: 24.08.17
Повідомлень: 7345

2017-03-11 12:37  
staf777 написано:
Великобрітанія

українською назва цієї країни - Велика Британія, виправ.

Ваш часовий пояс: GMT + 2 Години

Нова тема   Відповісти