CSI: Безсмертя (Фінал серіалу) / CSI: Immortality (The Final) (2015) 720p Ukr/Eng

Нові коментарі

Нова тема   Відповісти
Автор Повідомлення
Anonymous 







2017-03-11 09:45  
CSI: Безсмертя (Фінал серіалу) / CSI: Immortality (The Final) (2015) 720p Ukr/Eng

CSI: Безсмертя (Фінал серіалу) / CSI: Immortality (The Final) (2015) 720p Ukr/Eng


Жанр: драма, кримінальний, детектив, трилер
Країна: США



Кінокомпанія: CBS Television Studios, Jerry Bruckheimer Television
Режисер: Луїс Міліто / Louis Milito
Актори: Вільям Петерсен, Тед Денсон, Джорджа Фокс, Ерік Шманда, Роберт Девід Хол, Уоллес Ленгем, Девід Берман, Елізабет Харнуа, Пол Гилфойл та ін.

Сюжет:
Лас-Вегас ... Своїми яскравими неоновими вогнями, сотнями ігрових клубів і казино він вабить все нових і нових людей. Але далеко не всі з них виявляються добропорядними громадянами. У величезному людському потоці частенько ховаються злочинці всіх мастей. Вони переконані, що їх злодіяння залишаться непоміченими. Але вони сильно помиляються, адже в місті працює невтомна команда поліції C.S.I. У казино пролунав вибух і команда криміналістів знову взялася за справу. Докази їх приведуть до людини, з яким вони неодноразово перетиналися.


Тривалість: 1 серія: ~00:43:00 (цілком серій: 2)
Перелік серій
1. Перша частина
2. Друга частина
Якість: 720p
Відео:
кодек:
розмір кадру: 1280x720
бітрейт: 3941 кб/с

Аудіо # 1:
мова: українська
переклад: багатоголосий закадровий
кодек: 2.0
бітрейт: 192 кб/с

Аудіо # 2:
мова: англійська
переклад: оригінал
кодек: 5.1
бітрейт: 384 кб/с

Джерело озвучення:
Info
General
Unique ID : 178790603562516855835791063851274941000 (0x8681D155F100398F9CC03DA5C1713248)
Complete name : CSI Immortality (720p)\CSI.Immortality.Part.1..720p.
Format :
Format version : Version 2
File size : 1.39 GiB
Duration : 43mn 16s
Overall bit rate : 4 612 Kbps
Encoded date : UTC 2017-03-11 06:05:07
Writing application : v4.9.1 ('Ich will') built on Jul 11 2011 23:53:15
Writing library : libebml v1.2.1 + v1.1.1

Video
ID : 1
Format : AVC
Format/Info : Advanced Video Codec
Format profile : [email protected]
Format settings, CABAC : No
Format settings, ReFrames : 2 frames
Codec ID : V_MPEG4/ISO/AVC
Duration : 43mn 16s
Bit rate : 3 945 Kbps
Width : 1 280 pixels
Height : 720 pixels
Display aspect ratio : 16:9
Frame rate mode : Constant
Frame rate : 23.976 fps
Color space : YUV
Chroma subsampling : 4:2:0
Bit depth : 8 bits
Scan type : Progressive
Bits/(Pixel*Frame) : 0.179
Stream size : 1.19 GiB (86%)
Language : English
Default : Yes
Forced : No
Color range : Limited
Color primaries : BT.709
Transfer characteristics : BT.709
Matrix coefficients : BT.709

Audio #1
ID : 2
Format : AC-3
Format/Info : Audio Coding 3
Mode extension : CM (complete main)
Format settings, Endianness : Big
Codec ID : A_AC3
Duration : 43mn 16s
Bit rate mode : Constant
Bit rate : 192 Kbps
Channel(s) : 2 channels
Channel positions : Front: L R
Sampling rate : 48.0 KHz
Compression mode : Lossy
Stream size : 59.4 MiB (4%)
Title : Ukr (НТН) for Hurtom
Language : Ukrainian
Default : Yes
Forced : Yes

Audio #2
ID : 3
Format : AC-3
Format/Info : Audio Coding 3
Mode extension : CM (complete main)
Format settings, Endianness : Big
Codec ID : A_AC3
Duration : 43mn 16s
Bit rate mode : Constant
Bit rate : 384 Kbps
Channel(s) : 6 channels
Channel positions : Front: L C R, Side: L R, LFE
Sampling rate : 48.0 KHz
Compression mode : Lossy
Stream size : 119 MiB (8%)
Title : Original
Language : English
Default : No
Forced : No
Скріншоти




За запис звуку з ТБ дякуємо krigg070, Neytreenor
Джерело: &
Особиста оцінка: 0 - не дивився


Бронзовий реліз (на рейтинг впливає 75% завантаженого)
 Трекер:    Зареєстрований   

Завантажити / скачати серіал українською



відео для новачків



 Зареєстрований:   2017-03-11 09:45
 Розмір:   2.76 GB 
 Оцінка серіалу:   5.7/10 (Голосів: 21)
   
CastleOfDracula 
Новенький


З нами з: 12.09.13
Востаннє: 05.06.20
Повідомлень: 7

2017-03-11 17:08  
Дякую! Давно вже хотів подивитися, але в інтернеті була тільки російська і з таким озвученням не дуже приємним, а вчора по ТБ подивитися не встиг, але знав, що Гуртомі обов'язково хтось викладе!))
Keltirulla 
Забанено
Забанено


З нами з: 26.08.15
Востаннє: 05.04.19
Повідомлень: 723

2017-03-11 17:17  
Anonymous написано:
під керівництвом диби Рассела

так його, напевне, ще не обзивали... (D.B.)

З Любомля 
Новенький


З нами з: 21.11.12
Востаннє: 18.08.19
Повідомлень: 4

2018-02-16 20:34  
Дайте пірів, добрі люди! Happy
Ваш часовий пояс: GMT + 2 Години

Нова тема   Відповісти