Неможливе (The Impossible) / Lo imposible (2012) 720p Ukr/Eng | sub Ukr/Eng

Нові коментарі

Нова тема   Відповісти
Автор Повідомлення
Anonymous 







2017-03-10 14:52  
Неможливе (The Impossible) / Lo imposible (2012) 720p Ukr/Eng | sub Ukr/Eng
Неможливе (The Impossible) / Lo imposible (2012) 720p Ukr/Eng | sub Ukr/Eng


Жанр: драма, історичний, трилер
Країна: Іспанія , Автономна Область Каталонія
  • Володар 5-и премій «Ґойя» (національна премія Іспанії ) - (найкращий режисер, найкращий монтаж, найкращий звуковий супровід, найкращі спецефекти, найкращий продакшн);
  • Володар 6-и премій «Ґауді» (національна премія Автономної Області Каталонія ) - (найкращий європейський фільм, найкращий режисер, накращий монтаж, найкраща операторська робота, найкращі спецефекти, найкращий макіяж і стиліст волосся, найкращий звуковий супровід)
Кінокомпанія: Walt Disney Pictures, Silver Screen Partners IV, Walt Disney Feature Animation
Кінокомпанія: Apaches Entertainment, Canal+ España, Generalitat Valenciana, Institut Valencia de Cinematografia (IVAC), Instituto de la Cinematografía y de las Artes Audiovisuales (ICAA), La Trini, Mediaset España, Telecinco Cinema
Режисер: Хуан Антоніо Байона / Juan Antonio Bayona
Актори: Наомі Вотс (Naomi Watts), Юен МакҐреґор (Ewan McGregor), Том Голленд / Tom Holland, Семюел Джослін / Samuel Joslin, Оклі Пендерґаст / Oaklee Pendergast, Марта Етура / Marta Etura, Шенке Мерінґ / Sönke Möhring, Джеральдін Чаплін / Geraldine Chaplin, Плой Хіндачоте / Ploy Jindachote, Жомжаої Се-Лім / Jomjaoi Sae-Limh та інші

Сюжет:
У всі часи людина була практично беззахисна перед стихіями природи, чи це ураган, чи тайфун, паводок, сніжна лавина або цунамі. І навіть у наш час високого розвитку технологій і створення потужних машин ситуація не змінилася. Події цього фільму відбуваються у 2004 році. На місто обрушується цунамі величезної сили, руйнуючи все, що можна зруйнувати. Людям залишається тільки рятувати себе і своїх близьких будь-якими шляхами, докладаючи неймовірних зусиль. В такій ситуації доводиться розкривати найнепередбачувані можливості свого організму і мислення. Саме так і стає неможливе можливим.
Звичайна сім'я - Марія, Генрі та троє дітей - їде до Таїланду, щоб провести там Різдво. Вони поселяються у відремонтованій віллі на береговій лінії. Після вручення подарунків вони йдуть до басейну, як багато інших туристів. Чудові канікули несподівано перериває цунамі...

Рейтинг MPAA: PG-13 - дітям до 13 років рекомендується присутність батьків
Вікова категорія: 12+
Тривалість: 01:53:32
Якість:
Відео:
кодек:
розмір кадру: 1280x542 (2.35:1)
бітрейт: 7000 кб/с

Аудіо #1:
мова: українська
переклад: професійний дубльований
кодек: 2.0
бітрейт: 192 кб/с

Аудіо #2:
мова: англійська
переклад: оригінал
кодек: 5.1
бітрейт: 448 кб/с

Субтитри:
мова: українська , англійська
тип: програмні (м'які)
формат: *.srt
переклад українською: DeLight
Info
Код:
General
Unique ID                      : 228425517491495604169096705528946134344 (0xABD92788100DABE58EC8A8D5D62A8D48)
Complete name                  : D:\The Impossible (2012) 720p [ukr,eng. sub ukr,eng].
Format                         :
Format version                 : Version 4 / Version 2
File size                      : 6.06 GiB
Duration                       : 1h 53mn
Overall bit rate               : 7 638 Kbps
Movie name                     : The Impossible (2012) - fanatus
Encoded date                   : UTC 2017-03-10 09:20:38
Writing application            : v9.3.1 ('Mask Machine') 64bit
Writing library                : libebml v1.3.4 + v1.4.5
DURATION                       : 01:39:35.148000000
NUMBER_OF_FRAMES               : 605
NUMBER_OF_BYTES                : 18951
_STATISTICS_WRITING_APP        : v9.3.1 ('Mask Machine') 64bit
_STATISTICS_WRITING_DATE_UTC   : 2017-03-10 09:20:38
_STATISTICS_TAGS               : BPS DURATION NUMBER_OF_FRAMES NUMBER_OF_BYTES

Video
ID                             : 1
Format                         : AVC
Format/Info                    : Advanced Video Codec
Format profile                 : [email protected]
Format settings, CABAC         : Yes
Format settings, ReFrames      : 10 frames
Codec ID                       : V_MPEG4/ISO/AVC
Duration                       : 1h 53mn
Bit rate                       : 7 000 Kbps
Width                          : 1 280 pixels
Height                         : 542 pixels
Display aspect ratio           : 2.35:1
Frame rate mode                : Constant
Frame rate                     : 24.000 fps
Color space                    : YUV
Chroma subsampling             : 4:2:0
Bit depth                      : 8 bits
Scan type                      : Progressive
Bits/(Pixel*Frame)             : 0.420
Stream size                    : 5.43 GiB (90%)
Title                          : The Impossible (2012)
Writing library                : core 132 r2309 3b1f1f7
Encoding settings              : cabac=1 / ref=10 / deblock=1:-3:-3 / analyse=0x3:0x113 / me=tesa / subme=11 / psy=1 / psy_rd=0.95:0.05 / mixed_ref=1 / me_range=48 / chroma_me=1 / trellis=2 / 8x8dct=1 / cqm=0 / deadzone=21,11 / fast_pskip=0 / chroma_qp_offset=-3 / threads=16 / lookahead_threads=4 / sliced_threads=0 / nr=0 / decimate=0 / interlaced=0 / bluray_compat=0 / constrained_intra=0 / bframes=12 / b_pyramid=2 / b_adapt=2 / b_bias=0 / direct=3 / weightb=1 / open_gop=0 / weightp=2 / keyint=240 / keyint_min=24 / scenecut=40 / intra_refresh=0 / rc_lookahead=240 / rc=2pass / mbtree=0 / bitrate=7000 / ratetol=1.0 / qcomp=0.70 / qpmin=0 / qpmax=69 / qpstep=4 / cplxblur=20.0 / qblur=0.5 / vbv_maxrate=50000 / vbv_bufsize=62500 / nal_hrd=none / ip_ratio=1.40 / pb_ratio=1.30 / aq=1:0.90
Language                       : English
Default                        : Yes
Forced                         : No
Color range                    : Limited
Color primaries                : BT.709
Transfer characteristics       : BT.709
Matrix coefficients            : BT.709
DURATION                       : 01:53:31.834000000
NUMBER_OF_FRAMES               : 163484
NUMBER_OF_BYTES                : 5956493141
_STATISTICS_WRITING_APP        : v9.3.1 ('Mask Machine') 64bit
_STATISTICS_WRITING_DATE_UTC   : 2017-03-10 09:20:38
_STATISTICS_TAGS               : BPS DURATION NUMBER_OF_FRAMES NUMBER_OF_BYTES

Audio #1
ID                             : 2
Format                         : AC-3
Format/Info                    : Audio Coding 3
Mode extension                 : CM (complete main)
Format settings, Endianness    : Big
Codec ID                       : A_AC3
Duration                       : 1h 53mn
Bit rate mode                  : Constant
Bit rate                       : 192 Kbps
Channel(s)                     : 2 channels
Channel positions              : Front: L R
Sampling rate                  : 48.0 KHz
Compression mode               : Lossy
Stream size                    : 156 MiB (3%)
Title                          : DUB [1+1]
Language                       : Ukrainian
Default                        : Yes
Forced                         : No

Audio #2
ID                             : 3
Format                         : AC-3
Format/Info                    : Audio Coding 3
Mode extension                 : CM (complete main)
Format settings, Endianness    : Big
Codec ID                       : A_AC3
Duration                       : 1h 53mn
Bit rate mode                  : Constant
Bit rate                       : 448 Kbps
Channel(s)                     : 6 channels
Channel positions              : Front: L C R, Side: L R, LFE
Sampling rate                  : 48.0 KHz
Compression mode               : Lossy
Stream size                    : 364 MiB (6%)
Title                          : Original
Language                       : English
Default                        : No
Forced                         : No

Text #1
ID                             : 4
Format                         : UTF-8
Codec ID                       : S_TEXT/UTF8
Codec ID/Info                  : UTF-8 Plain Text
Title                          : Full [translated by DeLight]
Language                       : Ukrainian
Default                        : No
Forced                         : No

Text #2
ID                             : 5
Format                         : UTF-8
Codec ID                       : S_TEXT/UTF8
Codec ID/Info                  : UTF-8 Plain Text
Title                          : Full
Language                       : English
Default                        : No
Forced                         : No

Menu
00:00:00.000                   : en:Chapter 01
00:07:10.291                   : en:Chapter 02
00:12:50.875                   : en:Chapter 03
00:21:20.250                   : en:Chapter 04
00:27:02.625                   : en:Chapter 05
00:31:59.083                   : en:Chapter 06
00:38:13.791                   : en:Chapter 07
00:44:35.833                   : en:Chapter 08
00:51:09.125                   : en:Chapter 09
00:56:24.041                   : en:Chapter 10
01:03:24.583                   : en:Chapter 11
01:10:14.500                   : en:Chapter 12
01:15:27.291                   : en:Chapter 13
01:23:51.083                   : en:Chapter 14
01:36:00.500                   : en:Chapter 15
Скріншоти

Збережено оригінальні розділи, як на Blu-Ray
Джерело: &
Особиста оцінка: 9 - давно не бачив настільки якісне кіно
Подяки: п.OlegCena, POMEO, xslim за запис звуку; п.Віктор за фільмографії акторів; п.DeLight за зведення та укр. субтитри.


 Трекер:    Зареєстрований   

Завантажити / скачати фільм українською



відео для новачків



 Зареєстрований:   2017-03-10 14:52
 Розмір:   6.06 GB 
 Оцінка фільму:   5.6/10 (Голосів: 23)
   
11FrYkT 
Модератор відео


З нами з: 20.02.11
Востаннє: 21.04.19
Повідомлень: 5798

2017-03-11 10:54  
Anonymous, не описана оригінальна доріжка
taksist 
Поважний учасник


З нами з: 10.12.12
Востаннє: 21.04.19
Повідомлень: 245

2017-03-13 13:40  
сильно зроблено.
Ваш часовий пояс: GMT + 2 Години

Нова тема   Відповісти