Монстри на канікулах 2 / Hotel Transylvania 2 (2015) 720p-mini (60 fps)

Нові коментарі

Нова тема   Відповісти
Автор Повідомлення
Drool 
VIP


З нами з: 17.04.10
Востаннє: 23.08.17
Повідомлень: 1376

2017-03-10 09:26  
Монстри на канікулах 2 / Hotel Transylvania 2 (2015) 720p-mini (60 fps)

Жанр: анімація, комедія, фентезі, сімейний
Країна: США


Дітям рекомендується дивитися фільм з батьками
Рекомендується присутність батьків. Деякий матеріал, можливо, не підходить для дітей. Цей рейтинг показує, що оцінений фільм може містити деякі сцени, проглядання яких маленькими дітьми може не сподобатися їх батькам. Матеріал, який може бути присутнім у фільмі, повинен бути пояснений і розібраний з дітьми перш, ніж їм дозволять відвідати фільм. Явні сексуальні сцени і сцени вживання наркотиків відсутні; нагота, якщо присутня, то тільки дуже обмежено, жах і насильство не перевищують середнього рівня.
Кінокомпанія: Columbia Pictures, LStar Capital, Sony Pictures Animation
Режисер: Генндій Тартаковський
Актори: Адам Сендлер, Енді Семберґ, Селена Ґомес, Кевін Джеймс, Стів Бушемі, Девід Спейд, Кіґен-Майкл Кі, Ешер Блінкофф, Френ Дрешер, Моллі Шеннон
Ролі озвучили:
Сюжет:
Граф Дракула видає свою чарівну дочку заміж за хлопця зі світу людей, і у молодої «змішаної» пари народжується син. Стане ця дитина людиною чи вампіром?


Тривалість: 01:29:18
Якість: 720p-mini
Відео:
кодек:
розмір кадру: 1280x692
бітрейт: 4256 кб/с
crf: crf=18.0
кадрів на секунду: 59.940 к/с

Аудіо:
мова: українська
переклад: професійний дубльований
кодек: 2.0
бітрейт: 192 кб/с

Субтитри:
мова: українська
тип: програмні (м'які) форсовані
формат: *.srt
Info
Код:
General
Unique ID                                : 103706014082269891896433092835727426674 (0x4E050D425534EC61B9976923662CC472)
Complete name                            : /mnt/disk_d/Video/Hotel.Transylvania.2.2015.Ukr.Dub-2.0..720p-mini.60fps.
Format                                   :
Format version                           : Version 4 / Version 2
File size                                : 2.83 GiB
Duration                                 : 1h 29mn
Overall bit rate                         : 4 538 Kbps
Movie name                               : Монстри на канікулах 2 / Hotel Transylvania 2 (2015) 720p-mini [60fps] | NNNB
Encoded date                             : UTC 2017-03-10 06:06:39
Writing application                      : mkvmerge v9.7.1 ('Pandemonium') 64bit
Writing library                          : libebml v1.3.4 + libmatroska v1.4.5
Attachements                             : cover.jpg
DURATION                                 : 01:18:47.519000000
NUMBER_OF_FRAMES                         : 4
NUMBER_OF_BYTES                          : 113
_STATISTICS_WRITING_APP                  : mkvmerge v9.7.1 ('Pandemonium') 64bit
_STATISTICS_WRITING_DATE_UTC             : 2017-03-10 06:06:39
_STATISTICS_TAGS                         : BPS DURATION NUMBER_OF_FRAMES NUMBER_OF_BYTES

Video
ID                                       : 1
Format                                   : AVC
Format/Info                              : Advanced Video Codec
Format profile                           : [email protected]
Format settings, CABAC                   : Yes
Format settings, ReFrames                : 8 frames
Codec ID                                 : V_MPEG4/ISO/AVC
Duration                                 : 1h 29mn
Bit rate                                 : 4 256 Kbps
Width                                    : 1 280 pixels
Height                                   : 692 pixels
Display aspect ratio                     : 1.85:1
Frame rate mode                          : Constant
Frame rate                               : 59.880 fps
Original frame rate                      : 59.940 fps
Color space                              : YUV
Chroma subsampling                       : 4:2:0
Bit depth                                : 8 bits
Scan type                                : Progressive
Bits/(Pixel*Frame)                       : 0.080
Stream size                              : 2.65 GiB (94%)
Title                                    : Монстри на канікулах 2 / Hotel Transylvania 2 (2015) 720p-mini [60fps] | NNNB
Writing library                          : core 146 r2538 121396c
Encoding settings                        : cabac=1 / ref=8 / deblock=1:0:0 / analyse=0x3:0x113 / me=umh / subme=10 / psy=1 / psy_rd=1.00:0.00 / mixed_ref=1 / me_range=24 / chroma_me=1 / trellis=2 / 8x8dct=1 / cqm=0 / deadzone=21,11 / fast_pskip=0 / chroma_qp_offset=-2 / threads=12 / lookahead_threads=1 / sliced_threads=0 / nr=0 / decimate=1 / interlaced=0 / bluray_compat=0 / constrained_intra=0 / bframes=5 / b_pyramid=2 / b_adapt=2 / b_bias=0 / direct=3 / weightb=1 / open_gop=0 / weightp=2 / keyint=250 / keyint_min=25 / scenecut=40 / intra_refresh=0 / rc_lookahead=40 / rc=crf / mbtree=0 / crf=18.0 / qcomp=0.60 / qpmin=0 / qpmax=69 / qpstep=4 / vbv_maxrate=14000 / vbv_bufsize=14000 / crf_max=0.0 / nal_hrd=none / filler=0 / ip_ratio=1.40 / pb_ratio=1.30 / aq=3:1.00
Default                                  : Yes
Forced                                   : Yes
DURATION                                 : 01:29:18.320000000
NUMBER_OF_FRAMES                         : 321178
NUMBER_OF_BYTES                          : 2908070473
_STATISTICS_WRITING_APP                  : mkvmerge v9.7.1 ('Pandemonium') 64bit
_STATISTICS_WRITING_DATE_UTC             : 2017-03-10 06:06:39
_STATISTICS_TAGS                         : BPS DURATION NUMBER_OF_FRAMES NUMBER_OF_BYTES

Audio
ID                                       : 2
Format                                   : AC-3
Format/Info                              : Audio Coding 3
Mode extension                           : CM (complete main)
Format settings, Endianness              : Big
Codec ID                                 : A_AC3
Duration                                 : 1h 29mn
Bit rate mode                            : Constant
Bit rate                                 : 192 Kbps
Channel(s)                               : 2 channels
Channel positions                        : Front: L R
Sampling rate                            : 48.0 KHz
Compression mode                         : Lossy
Stream size                              : 123 MiB (4%)
Title                                    : 2.0 @ 192 kbps
Language                                 : Ukrainian
Default                                  : Yes
Forced                                   : Yes

Text
ID                                       : 3
Format                                   : UTF-8
Codec ID                                 : S_TEXT/UTF8
Codec ID/Info                            : UTF-8 Plain Text
Title                                    : Forced
Language                                 : Ukrainian
Default                                  : Yes
Forced                                   : Yes
Скріншоти




Джерело відеоряду:
Особиста оцінка: 9 - давно не бачив настільки якісне кіно


 Трекер:    Зареєстрований   

Завантажити / скачати мультфільм українською



відео для новачків



 Зареєстрований:   2017-03-10 09:26
 Розмір:   2.83 GB 
 Оцінка мультфільму:   10/10 (Голосів: 6)
   
Ваш часовий пояс: GMT + 2 Години

Нова тема   Відповісти