Ніндзя-вбивця / Ninja Assassin (2009) 1080p Ukr/Eng | Sub Ukr/Eng

Нові коментарі

Нова тема   Відповісти
Автор Повідомлення
staf777 
Відео Гуртом - підтримка та поширення
Відео Гуртом - підтримка та поширення


З нами з: 16.11.16
Востаннє: 06.11.17
Повідомлень: 522

2017-03-09 18:34  
Ніндзя-вбивця / Ninja Assassin (2009) 1080p Ukr/Eng | Sub Ukr/Eng

Ніндзя-вбивця / Ninja Assassin (2009) 1080p Ukr/Eng | Sub Ukr/Eng
Оригінальна обкладинка

Ніндзя-вбивця / Ninja Assassin (2009) 1080p Ukr/Eng | Sub Ukr/Eng
Жанр: кримінальний, трилер, екшн
Країна: США



Кінокомпанія: Warner Bros. Pictures
Режисер: Джеймс МакТіг
Актори: Санг Кенг, Рендол Дак Кім, Джонатан Чан-Пінслі, Юкі Івамото, Бен Майлз, Наомі Харріс, Рейн

Сюжет:
Рейзо — один з найнебезпечніших вбивць-ніндзя в світі. Ще дитям його перетворили на професійного вбивцю члени клану «Озуну» — секретної організації, чиє існування до сих пір вважалося вигадкою. Рейзо, якого переслідують муки совісті через нещадне вбивство свого друга кланом Озуну, втікає від своїх. Але таємні клани не відпускають «своїх» просто так...


Тривалість: 01:38:40
Якість: 1080p

Відео:
кодек:
розмір кадру: 1920x816
бітрейт: 13236 кб/с

Аудіо # 1:
мова: українська
переклад: багатоголосий закадровий
кодек: 2.0
бітрейт: 192 кб/с

Аудіо # 2:
мова: англійська
переклад: оригінал
кодек: 5.1
бітрейт: 1509 кб/с

Субтитри:
мова: українська
тип: програмні (м'які)
формат: *.srt

Субтитри:
мова: англійська
тип: програмні (м'які)
формат: *.srt
Info
General
Unique ID : 213859809225175343348555896052852321571 (0xA0E3E6AB21DA2DEAB54198F3D59DED23)
Complete name : P:\HD українською » Фільми в HD\Трилер\Ninja Assassin (2009) [Ukr,Eng sub.Ukr,Eng] 1080p [Hurtom].
Format :
Format version : Version 4 / Version 2
File size : 10.3 GiB
Duration : 1 h 38 min
Overall bit rate : 14.9 Mb/s
Movie name : Ninja Assassin (2009) [Ukr,Eng sub.Ukr,Eng] 1080p [Hurtom]
Encoded date : UTC 2017-03-11 09:46:12
Writing application : mkvmerge v9.8.0 ('Kuglblids') 64bit
Writing library : libebml v1.3.4 + libmatroska v1.4.5
Cover : Yes
Attachments : cover.jpg / logfile.log

Video
ID : 1
Format : AVC
Format/Info : Advanced Video Codec
Format profile : [email protected]
Format settings, CABAC : Yes
Format settings, ReFrames : 5 frames
Codec ID : V_MPEG4/ISO/AVC
Duration : 1 h 38 min
Bit rate : 13.2 Mb/s
Width : 1 920 pixels
Height : 816 pixels
Display aspect ratio : 2.35:1
Frame rate mode : Constant
Frame rate : 24.000 FPS
Color space : YUV
Chroma subsampling : 4:2:0
Bit depth : 8 bits
Scan type : Progressive
Bits/(Pixel*Frame) : 0.352
Stream size : 9.11 GiB (89%)
Title : Ninja Assassin (2009) - Release for HDCLUB
Writing library : core 148 r2744kMod b97ae06
Encoding settings : cabac=1 / ref=5 / deblock=1:-3:-3 / analyse=0x3:0x133 / me=umh / subme=11 / psy=1 / fade_compensate=0.00 / psy_rd=1.00:0.15 / mixed_ref=1 / me_range=48 / chroma_me=1 / trellis=2 / 8x8dct=1 / cqm=0 / deadzone=21,11 / fast_pskip=0 / chroma_qp_offset=-3 / threads=12 / lookahead_threads=3 / sliced_threads=0 / nr=0 / decimate=0 / interlaced=0 / bluray_compat=0 / constrained_intra=0 / bframes=11 / b_pyramid=2 / b_adapt=2 / b_bias=0 / direct=3 / weightb=1 / open_gop=0 / weightp=2 / keyint=240 / keyint_min=24 / scenecut=40 / intra_refresh=0 / rc_lookahead=120 / rc=crf / mbtree=0 / crf=20.5000 / qcomp=0.60 / qpmin=0 / qpmax=69 / qpstep=4 / vbv_maxrate=62500 / vbv_bufsize=78125 / crf_max=0.0 / nal_hrd=none / filler=0 / ip_ratio=1.30 / pb_ratio=1.20 / aq=1:0.80
Language : English
Default : Yes
Forced : No
Color range : Limited
Color primaries : BT.709
Transfer characteristics : BT.709
Matrix coefficients : BT.709

Audio #1
ID : 2
Format : AC-3
Format/Info : Audio Coding 3
Mode extension : CM (complete main)
Format settings, Endianness : Big
Codec ID : A_AC3
Duration : 1 h 38 min
Bit rate mode : Constant
Bit rate : 192 kb/s
Channel(s) : 2 channels
Channel positions : Front: L R
Sampling rate : 48.0 kHz
Frame rate : 31.250 FPS (1536 spf)
Bit depth : 16 bits
Compression mode : Lossy
Stream size : 136 MiB (1%)
Title : UA-MVO, ICTV
Language : Ukrainian
Default : Yes
Forced : Yes

Audio #2
ID : 3
Format :
Format/Info : Digital Theater Systems
Mode : 16
Format settings, Endianness : Big
Codec ID : A_DTS
Duration : 1 h 38 min
Bit rate mode : Constant
Bit rate : 1 509 kb/s
Channel(s) : 6 channels
Channel positions : Front: L C R, Side: L R, LFE
Sampling rate : 48.0 kHz
Frame rate : 93.750 FPS (512 spf)
Bit depth : 24 bits
Compression mode : Lossy
Stream size : 1.04 GiB (10%)
Title : English
Language : English
Default : No
Forced : No

Text #1
ID : 4
Format : UTF-8
Codec ID : S_TEXT/UTF8
Codec ID/Info : UTF-8 Plain Text
Duration : 1 h 9 min
Bit rate : 0 b/s
Count of elements : 9
Stream size : 375 Bytes (0%)
Title : Ukrainian (Forced)
Language : Ukrainian
Default : Yes
Forced : Yes

Text #2
ID : 5
Format : UTF-8
Codec ID : S_TEXT/UTF8
Codec ID/Info : UTF-8 Plain Text
Duration : 1 h 30 min
Bit rate : 50 b/s
Count of elements : 680
Stream size : 33.7 KiB (0%)
Title : Ukrainian
Language : Ukrainian
Default : No
Forced : No

Text #3
ID : 6
Format : UTF-8
Codec ID : S_TEXT/UTF8
Codec ID/Info : UTF-8 Plain Text
Duration : 1 h 29 min
Bit rate : 36 b/s
Count of elements : 791
Stream size : 23.8 KiB (0%)
Title : English (SDH)
Language : English
Default : No
Forced : No

Menu
00:00:00.000 : :Laughter Drowned in Blood
00:06:19.378 : :Stained Laundry
00:09:46.168 : :Way of the Ninja
00:13:52.748 : :Painful Path
00:17:29.965 : :Who Are You?
00:21:43.343 : :Survive the Night
00:24:27.090 : :Listening and Seeing
00:31:07.991 : :Kiriko's Choice
00:37:05.097 : :Lights Out
00:41:02.668 : :Throught the Heart
00:44:52.940 : :Watch Man
00:48:21.273 : :Fall From Grace
00:51:47.979 : :Into a Trap
00:54:21.216 : :Smell of a Setup
00:57:30.321 : :Ninja Swarm
01:00:43.931 : :Brothers in Battle
01:04:37.748 : :Car Trouble
01:07:00.433 : :Traffic Jam
01:10:07.036 : :Part of Each Other
01:14:07.442 : :Tonight We Avenge
01:18:59.651 : :Like Old Times
01:22:01.249 : :Not My Family
01:25:09.145 : :Final Cut
01:28:02.944 : :Where the Heart Is
01:30:47.942 : :End Credits
Скріншоти



Велика подяка за надану звукову доріжку - пану НТН
Джерело: &
Особиста оцінка: 8 - мені сподобалося
Ніндзя-вбивця / Ninja Assassin (2009) 1080p Ukr/Eng | Sub Ukr/Eng


 Трекер:    Зареєстрований   

Завантажити / скачати фільм українською



відео для новачків



 Зареєстрований:   2017-03-11 14:33
 Розмір:   10.28 GB 
 Оцінка фільму:   10/10 (Голосів: 5)
   
Інші релізи
   Ніндзя-вбивця / Ninja Assassin (2009) 720р Ukr/Eng | Sub Ukr/Eng patriot2305  1 / 0   3.87 GB   2012-03-22 15:16 
   Ніндзя-вбивця / Ninja Assassin (2009) Ukr/Eng НТН  4 / 0   1.72 GB   2012-03-19 09:34 
Ваш часовий пояс: GMT + 2 Години

Нова тема   Відповісти