Фантастичні звірі і де їх шукати / Fantastic Beasts and Where to Find Them (2016) 720p-mini (60 fps)

Нові коментарі

Нова тема   Відповісти
Автор Повідомлення
Drool 
VIP


З нами з: 17.04.10
Востаннє: 19.05.19
Повідомлень: 1515

2017-03-09 17:11  
Фантастичні звірі і де їх шукати / Fantastic Beasts and Where to Find Them (2016) 720p-mini (60 fps)

Жанр: пригоди, сімейний, фентезі
Країна: США, Велика Британія


Діти до 13 років допускаються на фільм тільки з батьками
Настійне застереження батькам. Деякий матеріал може бути невідповідним для дітей до 13 років. Цей рейтинг показує, що оцінений фільм може бути невідповідним для дітей. Батьки повинні бути особливо обережні, дозволяючи своїм маленьким дітям перегляд. Грубе або тривале насильство відсутнє; сексуальна орієнтація на наготу відсутня; деякі сцени вживання наркотиків можуть бути присутніми; можна почути одиничні вживання грубої сексуальної лексики. Присутня епізодична оголеність (не враховуючи репродуктивні органи). Присутні сексуальні натяки і натяки на гомосексуалізм чи сексуальні збочення.
Кінокомпанія: Warner Bros., Heyday Films
Режисер: Девід Йетс
Актори: Едді Редмейн, Кетрін Вотерстон, Ден Фоґлер, Езра Міллер, Саманта Мортон, Колін Фаррелл, Кармен Еджоґо, Рон Перлман, Джон Войт

Сюжет:
Нью-Йорк 20-х років ХХ століття. Головний герой – Ньют Скамандер, який приїхав в місто спеціально для того, щоб відвідати секретну спільноту чарівниць та чарівників. Він – відомий дослідник і письменник, а підручники його авторства входять до обов'язкової програми Хогвартсу – знаменитої школи магії. Саме про підручник " Фантастичні звірі і де їх шукати" нам розповідає фільм. Ця книга є переліком фантастичних тварин і містить їх опис. Пориньте у цей чарівний світ!


Тривалість: 02:12:52
Якість: 720p-mini
Відео:
кодек:
розмір кадру: 1280 х 534
бітрейт: 3666 кб/с
crf: crf=17.8
кадрів на секунду: 59.940 к/с

Аудіо:
мова: українська
переклад: професійний дубльований
кодек: 2.0
бітрейт: 192 кб/с

Субтитри:
мова: українська
тип: програмні (м'які) форсовані
формат: *.srt
Info
Код:
General
Unique ID                                : 22925224431688676375999543973846477597 (0x113F3CD4C2DFE00557DE0842247C6B1D)
Complete name                            : /mnt/disk_d/Video/Fantastic.Beasts.and.Where.to.Find.Them.2016.Ukr.Dub-2.0..720p-mini.60fps.
Format                                   :
Format version                           : Version 4 / Version 2
File size                                : 3.65 GiB
Duration                                 : 2h 12mn
Overall bit rate                         : 3 937 Kbps
Movie name                               : Фантастичні звірі і де їх шукати / Fantastic Beasts and Where to Find Them (2016) 720p-mini [60fps] | NNNB
Encoded date                             : UTC 2017-03-09 08:12:22
Writing application                      : v9.7.1 ('Pandemonium') 64bit
Writing library                          : libebml v1.3.4 + v1.4.5
Attachements                             : cover.png
DURATION                                 : 02:02:24.587000000
NUMBER_OF_FRAMES                         : 40
NUMBER_OF_BYTES                          : 2442
_STATISTICS_WRITING_APP                  : v9.7.1 ('Pandemonium') 64bit
_STATISTICS_WRITING_DATE_UTC             : 2017-03-09 08:12:22
_STATISTICS_TAGS                         : BPS DURATION NUMBER_OF_FRAMES NUMBER_OF_BYTES

Video
ID                                       : 1
Format                                   : AVC
Format/Info                              : Advanced Video Codec
Format profile                           : [email protected]
Format settings, CABAC                   : Yes
Format settings, ReFrames                : 9 frames
Codec ID                                 : V_MPEG4/ISO/AVC
Duration                                 : 2h 12mn
Bit rate                                 : 3 666 Kbps
Width                                    : 1 280 pixels
Height                                   : 534 pixels
Display aspect ratio                     : 2.40:1
Frame rate mode                          : Constant
Frame rate                               : 59.880 fps
Original frame rate                      : 59.940 fps
Color space                              : YUV
Chroma subsampling                       : 4:2:0
Bit depth                                : 8 bits
Scan type                                : Progressive
Bits/(Pixel*Frame)                       : 0.090
Stream size                              : 3.40 GiB (93%)
Title                                    : Fantastic Beasts and Where to Find Them.(2016)..720p.[envy].[60fps]
Writing library                          : core 146 r2538 121396c
Encoding settings                        : cabac=1 / ref=9 / deblock=1:0:0 / analyse=0x3:0x113 / me=umh / subme=10 / psy=1 / psy_rd=1.00:0.00 / mixed_ref=1 / me_range=24 / chroma_me=1 / trellis=2 / 8x8dct=1 / cqm=0 / deadzone=21,11 / fast_pskip=0 / chroma_qp_offset=-2 / threads=12 / lookahead_threads=1 / sliced_threads=0 / nr=0 / decimate=1 / interlaced=0 / bluray_compat=0 / constrained_intra=0 / bframes=5 / b_pyramid=2 / b_adapt=2 / b_bias=0 / direct=3 / weightb=1 / open_gop=0 / weightp=2 / keyint=250 / keyint_min=25 / scenecut=40 / intra_refresh=0 / rc_lookahead=40 / rc=crf / mbtree=0 / crf=17.8 / qcomp=0.60 / qpmin=0 / qpmax=69 / qpstep=4 / vbv_maxrate=14000 / vbv_bufsize=14000 / crf_max=0.0 / nal_hrd=none / filler=0 / ip_ratio=1.40 / pb_ratio=1.30 / aq=3:1.00
Default                                  : Yes
Forced                                   : Yes
DURATION                                 : 02:12:52.298000000
NUMBER_OF_FRAMES                         : 477860
NUMBER_OF_BYTES                          : 3727416430
_STATISTICS_WRITING_APP                  : v9.7.1 ('Pandemonium') 64bit
_STATISTICS_WRITING_DATE_UTC             : 2017-03-09 08:12:22
_STATISTICS_TAGS                         : BPS DURATION NUMBER_OF_FRAMES NUMBER_OF_BYTES

Audio
ID                                       : 2
Format                                   : AC-3
Format/Info                              : Audio Coding 3
Mode extension                           : CM (complete main)
Format settings, Endianness              : Big
Codec ID                                 : A_AC3
Duration                                 : 2h 12mn
Bit rate mode                            : Constant
Bit rate                                 : 192 Kbps
Channel(s)                               : 2 channels
Channel positions                        : Front: L R
Sampling rate                            : 48.0 KHz
Compression mode                         : Lossy
Stream size                              : 182 MiB (5%)
Title                                    : 2.0 @ 192 kbps
Language                                 : Ukrainian
Default                                  : Yes
Forced                                   : Yes

Text
ID                                       : 3
Format                                   : UTF-8
Codec ID                                 : S_TEXT/UTF8
Codec ID/Info                            : UTF-8 Plain Text
Title                                    : Forced
Language                                 : Ukrainian
Default                                  : Yes
Forced                                   : Yes
Скріншоти


Джерело відеоряду:
Особиста оцінка: 8 - мені сподобалося


 Трекер:    Зареєстрований   

Завантажити / скачати фільм українською



відео для новачків



 Зареєстрований:   2017-03-09 17:13
 Розмір:   3.65 GB 
 Оцінка фільму:   9.3/10 (Голосів: 59)
   
Інші релізи
   Фантастичні звірі і де їх шукати / Fantastic Beasts and Where to Find Them (2016) UHD Remux 2160p 4K HDR H.265 Ukr/Eng | Sub Ukr/Eng Argentum  0 / 1   47.88 GB   2019-04-01 13:32 
   Фантастичні звірі і де їх шукати / Fantastic Beasts and Where to Find Them (2016) 1080p H.265 Ukr/Eng | Sub Ukr/Eng igor302  51 / 0   4.88 GB   2018-03-16 23:17 
   Фантастичні звірі і де їх шукати / Fantastic Beasts and Where to Find Them (2016) Ukr 5.1| Sub Uk srtr Bochys  4 / 0   426 MB   2017-11-02 11:56 
   Фантастичні звірі і де їх шукати / Fantastic Beasts and Where to Find Them (2016) DVD9 Eng/Cz/Rus/Ukr | Sub Eng/Cz/Est/Latv/Lith/Port/Rus/Ukr Bochys  7 / 0   6.55 GB   2017-10-30 13:03 
   Фантастичні звірі і де їх шукати / Fantastic Beasts and Where to Find Them (2016) 1080p 3D [Half OverUnder] Ukr/Eng | Sub Eng igor911  6 / 0   13.52 GB   2017-03-24 22:28 
   Фантастичні звірі і де їх шукати / Fantastic Beasts and Where to Find Them (2016) Remux 1080p Ukr/Eng | Sub Eng staf777  24 / 1   24.15 GB   2017-03-09 12:45 
   Фантастичні звірі і де їх шукати / Fantastic Beasts and Where to Find Them (2016) 1080p Ukr/Eng | Sub Eng Electroz  25 / 1   14.29 GB   2017-03-08 15:28 
   Фантастичні звірі і де їх шукати / Fantastic Beasts and Where to Find Them (2016) Covenant  39 / 4   1.45 GB   2017-03-08 14:50 
   Фантастичні звірі і де їх шукати / Fantastic Beasts and Where to Find Them (2016) 720p Ukr/Eng | Sub Eng 11FrYkT  25 / 0   5.76 GB   2017-03-08 13:23 
   Фантастичні звірі і де їх шукати / Fantastic Beasts and Where to Find Them (2016) AVC Ukr/Eng | Sub Eng 11FrYkT  42 / 0   2.18 GB   2017-03-08 13:09 
   Фантастичні звірі і де їх шукати / Fantastic Beasts and Where to Find Them (2016) Ukr/Eng Gelios  23 / 1   2.18 GB   2017-03-08 12:44 
11994455 
Попереджень: 1
Попереджень: 1 


З нами з: 07.04.14
Востаннє: 19.05.19
Повідомлень: 313

2017-11-17 17:09  
Завжди при таких релізах натикаюся на парадокс фпс 60 а розмір не фул айчдішний - і незнаю качати чині...
Drool 
VIP


З нами з: 17.04.10
Востаннє: 19.05.19
Повідомлень: 1515

2017-11-19 00:00  
11994455 написано:
парадокс фпс 60 а розмір не фул айчдішний
Так а парадокс в чому?
famous37 
Відео Гуртом - фільмокрай
Відео Гуртом - фільмокрай


З нами з: 16.11.08
Востаннє: 19.05.19
Повідомлень: 957

2017-11-19 00:04  
Drool, робіть, будь ласка, 1080р з 60 кард/с
Drool 
VIP


З нами з: 17.04.10
Востаннє: 19.05.19
Повідомлень: 1515

2017-11-25 23:21  
famous37 написано:
Drool, робіть, будь ласка, 1080р з 60 кард/с
Для мене такі релізи затяжкі в плані об'єму. Що заважає самому їх зробити?
І-р 
Частий відвідувач


З нами з: 21.07.16
Востаннє: 19.05.19
Повідомлень: 47

2019-02-15 23:47  
Цитата:
Що заважає самому їх зробити?

Як зробити? Десь є інструкція? Буду вдячний за посилання.

Drool 
VIP


З нами з: 17.04.10
Востаннє: 19.05.19
Повідомлень: 1515

2019-02-16 02:28  
І-р написано:
Як зробити? Десь є інструкція? Буду вдячний за посилання.
Найпростіше - знайти готовий варіант потрібного відеоряду, прикріпити до нього бажані звукову доріжки та саби і викласти. Або - кодувати такий відеоряд самому.
Ваш часовий пояс: GMT + 2 Години

Нова тема   Відповісти